  0
SECTION
  2
HEADER
  9
$ACADVER
  1
AC1015
  9
$ACADMAINTVER
 70
     6
  9
$DWGCODEPAGE
  3
ANSI_1252
  9
$INSBASE
 10
0.0
 20
0.0
 30
0.0
  9
$EXTMIN
 10
-398.4995064556085
 20
-549.729907287658
 30
0.0
  9
$EXTMAX
 10
409.5004935443915
 20
24.3357965599688
 30
0.0
  9
$LIMMIN
 10
0.0
 20
0.0
  9
$LIMMAX
 10
12.0
 20
9.0
  9
$ORTHOMODE
 70
     0
  9
$REGENMODE
 70
     1
  9
$FILLMODE
 70
     1
  9
$QTEXTMODE
 70
     0
  9
$MIRRTEXT
 70
     1
  9
$LTSCALE
 40
1.0
  9
$ATTMODE
 70
     1
  9
$TEXTSIZE
 40
0.2
  9
$TRACEWID
 40
0.05
  9
$TEXTSTYLE
  7
Standard
  9
$CLAYER
  8
0
  9
$CELTYPE
  6
ByLayer
  9
$CECOLOR
 62
   256
  9
$CELTSCALE
 40
1.0
  9
$DISPSILH
 70
     0
  9
$DIMSCALE
 40
1.0
  9
$DIMASZ
 40
0.18
  9
$DIMEXO
 40
0.0625
  9
$DIMDLI
 40
0.38
  9
$DIMRND
 40
0.0
  9
$DIMDLE
 40
0.0
  9
$DIMEXE
 40
0.18
  9
$DIMTP
 40
0.0
  9
$DIMTM
 40
0.0
  9
$DIMTXT
 40
0.18
  9
$DIMCEN
 40
0.09
  9
$DIMTSZ
 40
0.0
  9
$DIMTOL
 70
     0
  9
$DIMLIM
 70
     0
  9
$DIMTIH
 70
     1
  9
$DIMTOH
 70
     1
  9
$DIMSE1
 70
     0
  9
$DIMSE2
 70
     0
  9
$DIMTAD
 70
     0
  9
$DIMZIN
 70
     0
  9
$DIMBLK
  1

  9
$DIMASO
 70
     1
  9
$DIMSHO
 70
     1
  9
$DIMPOST
  1

  9
$DIMAPOST
  1

  9
$DIMALT
 70
     0
  9
$DIMALTD
 70
     2
  9
$DIMALTF
 40
25.4
  9
$DIMLFAC
 40
1.0
  9
$DIMTOFL
 70
     0
  9
$DIMTVP
 40
0.0
  9
$DIMTIX
 70
     0
  9
$DIMSOXD
 70
     0
  9
$DIMSAH
 70
     0
  9
$DIMBLK1
  1

  9
$DIMBLK2
  1

  9
$DIMSTYLE
  2
Standard
  9
$DIMCLRD
 70
     0
  9
$DIMCLRE
 70
     0
  9
$DIMCLRT
 70
     0
  9
$DIMTFAC
 40
1.0
  9
$DIMGAP
 40
0.09
  9
$DIMJUST
 70
     0
  9
$DIMSD1
 70
     0
  9
$DIMSD2
 70
     0
  9
$DIMTOLJ
 70
     1
  9
$DIMTZIN
 70
     0
  9
$DIMALTZ
 70
     0
  9
$DIMALTTZ
 70
     0
  9
$DIMUPT
 70
     0
  9
$DIMDEC
 70
     4
  9
$DIMTDEC
 70
     4
  9
$DIMALTU
 70
     2
  9
$DIMALTTD
 70
     2
  9
$DIMTXSTY
  7
Standard
  9
$DIMAUNIT
 70
     0
  9
$DIMADEC
 70
     0
  9
$DIMALTRND
 40
0.0
  9
$DIMAZIN
 70
     0
  9
$DIMDSEP
 70
    46
  9
$DIMATFIT
 70
     3
  9
$DIMFRAC
 70
     0
  9
$DIMLDRBLK
  1

  9
$DIMLUNIT
 70
     2
  9
$DIMLWD
 70
    -2
  9
$DIMLWE
 70
    -2
  9
$DIMTMOVE
 70
     0
  9
$LUNITS
 70
     2
  9
$LUPREC
 70
     4
  9
$SKETCHINC
 40
0.1
  9
$FILLETRAD
 40
0.5
  9
$AUNITS
 70
     0
  9
$AUPREC
 70
     0
  9
$MENU
  1
.
  9
$ELEVATION
 40
0.0
  9
$PELEVATION
 40
0.0
  9
$THICKNESS
 40
0.0
  9
$LIMCHECK
 70
     0
  9
$CHAMFERA
 40
0.5
  9
$CHAMFERB
 40
0.5
  9
$CHAMFERC
 40
1.0
  9
$CHAMFERD
 40
0.0
  9
$SKPOLY
 70
     0
  9
$TDCREATE
 40
2458374.636355718
  9
$TDUCREATE
 40
2458374.553022384
  9
$TDUPDATE
 40
2458374.636356435
  9
$TDUUPDATE
 40
2458374.553023102
  9
$TDINDWG
 40
0.0000000116
  9
$TDUSRTIMER
 40
0.0000000116
  9
$USRTIMER
 70
     1
  9
$ANGBASE
 50
0.0
  9
$ANGDIR
 70
     0
  9
$PDMODE
 70
     0
  9
$PDSIZE
 40
0.0
  9
$PLINEWID
 40
0.0
  9
$SPLFRAME
 70
     0
  9
$SPLINETYPE
 70
     6
  9
$SPLINESEGS
 70
     8
  9
$HANDSEED
  5
29D
  9
$SURFTAB1
 70
     6
  9
$SURFTAB2
 70
     6
  9
$SURFTYPE
 70
     6
  9
$SURFU
 70
     6
  9
$SURFV
 70
     6
  9
$UCSBASE
  2

  9
$UCSNAME
  2

  9
$UCSORG
 10
0.0
 20
0.0
 30
0.0
  9
$UCSXDIR
 10
1.0
 20
0.0
 30
0.0
  9
$UCSYDIR
 10
0.0
 20
1.0
 30
0.0
  9
$UCSORTHOREF
  2

  9
$UCSORTHOVIEW
 70
     0
  9
$UCSORGTOP
 10
0.0
 20
0.0
 30
0.0
  9
$UCSORGBOTTOM
 10
0.0
 20
0.0
 30
0.0
  9
$UCSORGLEFT
 10
0.0
 20
0.0
 30
0.0
  9
$UCSORGRIGHT
 10
0.0
 20
0.0
 30
0.0
  9
$UCSORGFRONT
 10
0.0
 20
0.0
 30
0.0
  9
$UCSORGBACK
 10
0.0
 20
0.0
 30
0.0
  9
$PUCSBASE
  2

  9
$PUCSNAME
  2

  9
$PUCSORG
 10
0.0
 20
0.0
 30
0.0
  9
$PUCSXDIR
 10
1.0
 20
0.0
 30
0.0
  9
$PUCSYDIR
 10
0.0
 20
1.0
 30
0.0
  9
$PUCSORTHOREF
  2

  9
$PUCSORTHOVIEW
 70
     0
  9
$PUCSORGTOP
 10
0.0
 20
0.0
 30
0.0
  9
$PUCSORGBOTTOM
 10
0.0
 20
0.0
 30
0.0
  9
$PUCSORGLEFT
 10
0.0
 20
0.0
 30
0.0
  9
$PUCSORGRIGHT
 10
0.0
 20
0.0
 30
0.0
  9
$PUCSORGFRONT
 10
0.0
 20
0.0
 30
0.0
  9
$PUCSORGBACK
 10
0.0
 20
0.0
 30
0.0
  9
$USERI1
 70
     0
  9
$USERI2
 70
     0
  9
$USERI3
 70
     0
  9
$USERI4
 70
     0
  9
$USERI5
 70
     0
  9
$USERR1
 40
18.1
  9
$USERR2
 40
0.0
  9
$USERR3
 40
0.0
  9
$USERR4
 40
0.0
  9
$USERR5
 40
0.0
  9
$WORLDVIEW
 70
     1
  9
$SHADEDGE
 70
     3
  9
$SHADEDIF
 70
    70
  9
$TILEMODE
 70
     1
  9
$MAXACTVP
 70
    64
  9
$PINSBASE
 10
0.0
 20
0.0
 30
0.0
  9
$PLIMCHECK
 70
     0
  9
$PEXTMIN
 10
1.00000000000000E+20
 20
1.00000000000000E+20
 30
1.00000000000000E+20
  9
$PEXTMAX
 10
-1.00000000000000E+20
 20
-1.00000000000000E+20
 30
-1.00000000000000E+20
  9
$PLIMMIN
 10
0.0
 20
0.0
  9
$PLIMMAX
 10
12.0
 20
9.0
  9
$UNITMODE
 70
     0
  9
$VISRETAIN
 70
     1
  9
$PLINEGEN
 70
     0
  9
$PSLTSCALE
 70
     1
  9
$TREEDEPTH
 70
  3020
  9
$CMLSTYLE
  2
Standard
  9
$CMLJUST
 70
     0
  9
$CMLSCALE
 40
1.0
  9
$PROXYGRAPHICS
 70
     1
  9
$MEASUREMENT
 70
     1
  9
$CELWEIGHT
370
    -1
  9
$ENDCAPS
280
     0
  9
$JOINSTYLE
280
     0
  9
$LWDISPLAY
290
     0
  9
$INSUNITS
 70
     1
  9
$HYPERLINKBASE
  1

  9
$STYLESHEET
  1

  9
$XEDIT
290
     1
  9
$CEPSNTYPE
380
     0
  9
$PSTYLEMODE
290
     1
  9
$FINGERPRINTGUID
  2
{80CE5F51-E58F-4F75-91D6-A8CFF30B485C}
  9
$VERSIONGUID
  2
{FAEB1C32-E019-11D5-929B-00C0DF256EC4}
  9
$EXTNAMES
290
     1
  9
$PSVPSCALE
 40
0.0
  9
$OLESTARTUP
290
     0
  0
ENDSEC
  0
SECTION
  2
CLASSES
  0
CLASS
  1
ACDBDICTIONARYWDFLT
  2
AcDbDictionaryWithDefault
  3
ObjectDBX Classes
 90
        0
280
     0
281
     0
  0
CLASS
  1
VISUALSTYLE
  2
AcDbVisualStyle
  3
ObjectDBX Classes
 90
     4095
280
     0
281
     0
  0
CLASS
  1
MATERIAL
  2
AcDbMaterial
  3
ObjectDBX Classes
 90
     1153
280
     0
281
     0
  0
CLASS
  1
DICTIONARYVAR
  2
AcDbDictionaryVar
  3
ObjectDBX Classes
 90
        0
280
     0
281
     0
  0
CLASS
  1
ACDBPLACEHOLDER
  2
AcDbPlaceHolder
  3
ObjectDBX Classes
 90
        0
280
     0
281
     0
  0
CLASS
  1
LAYOUT
  2
AcDbLayout
  3
ObjectDBX Classes
 90
        0
280
     0
281
     0
  0
ENDSEC
  0
SECTION
  2
TABLES
  0
TABLE
  2
VPORT
  5
8
330
0
100
AcDbSymbolTable
 70
     1
  0
VPORT
  5
29
330
8
100
AcDbSymbolTableRecord
100
AcDbViewportTableRecord
  2
*Active
 70
     0
 10
0.0
 20
0.0
 11
1.0
 21
1.0
 12
5.50049354439147
 22
-262.6970553638446
 13
0.0
 23
0.0
 14
0.5
 24
0.5
 15
0.5
 25
0.5
 16
0.0
 26
0.0
 36
1.0
 17
0.0
 27
0.0
 37
0.0
 40
631.4722742323895
 41
1.60267857142857
 42
50.0
 43
0.0
 44
0.0
 50
0.0
 51
0.0
 71
     0
 72
   100
 73
     1
 74
     3
 75
     0
 76
     0
 77
     0
 78
     0
281
     0
 65
     1
110
0.0
120
0.0
130
0.0
111
1.0
121
0.0
131
0.0
112
0.0
122
1.0
132
0.0
 79
     0
146
0.0
  0
ENDTAB
  0
TABLE
  2
LTYPE
  5
5
330
0
100
AcDbSymbolTable
 70
     8
  0
LTYPE
  5
14
330
5
100
AcDbSymbolTableRecord
100
AcDbLinetypeTableRecord
  2
ByBlock
 70
     0
  3

 72
    65
 73
     0
 40
0.0
  0
LTYPE
  5
15
330
5
100
AcDbSymbolTableRecord
100
AcDbLinetypeTableRecord
  2
ByLayer
 70
     0
  3

 72
    65
 73
     0
 40
0.0
  0
LTYPE
  5
16
330
5
100
AcDbSymbolTableRecord
100
AcDbLinetypeTableRecord
  2
Continuous
 70
     0
  3
Solid line
 72
    65
 73
     0
 40
0.0
  0
LTYPE
  5
3F
330
5
100
AcDbSymbolTableRecord
100
AcDbLinetypeTableRecord
  2
DASHED
 70
     0
  3
Dashed
 72
    65
 73
     2
 40
15.0
 49
7.0
 74
     0
 49
-8.0
 74
     0
  0
LTYPE
  5
40
330
5
100
AcDbSymbolTableRecord
100
AcDbLinetypeTableRecord
  2
DOTTED
 70
     0
  3
Dotted
 72
    65
 73
     2
 40
1.0
 49
0.0
 74
     0
 49
-1.0
 74
     0
  0
LTYPE
  5
41
330
5
100
AcDbSymbolTableRecord
100
AcDbLinetypeTableRecord
  2
DOT_CENTER
 70
     0
  3
Dot_Center
 72
    65
 73
     4
 40
14.0
 49
12.0
 74
     0
 49
-1.0
 74
     0
 49
0.0
 74
     0
 49
-1.0
 74
     0
  0
LTYPE
  5
42
330
5
100
AcDbSymbolTableRecord
100
AcDbLinetypeTableRecord
  2
LONG_DASHED
 70
     0
  3
Long_Dashed
 72
    65
 73
     2
 40
15.0
 49
10.0
 74
     0
 49
-5.0
 74
     0
  0
LTYPE
  5
43
330
5
100
AcDbSymbolTableRecord
100
AcDbLinetypeTableRecord
  2
DASH_CENTER
 70
     0
  3
Dash_Center
 72
    65
 73
     4
 40
14.0
 49
11.0
 74
     0
 49
-1.0
 74
     0
 49
1.0
 74
     0
 49
-1.0
 74
     0
  0
LTYPE
  5
44
330
5
100
AcDbSymbolTableRecord
100
AcDbLinetypeTableRecord
  2
PHANTOM
 70
     0
  3
Phantom
 72
    65
 73
     6
 40
13.0
 49
10.0
 74
     0
 49
-1.0
 74
     0
 49
0.0
 74
     0
 49
-1.0
 74
     0
 49
0.0
 74
     0
 49
-1.0
 74
     0
  0
LTYPE
  5
45
330
5
100
AcDbSymbolTableRecord
100
AcDbLinetypeTableRecord
  2
CENTER_DASH_DASH
 70
     0
  3
Center_Dash_Dash
 72
    65
 73
     6
 40
14.0
 49
9.0
 74
     0
 49
-1.0
 74
     0
 49
1.0
 74
     0
 49
-1.0
 74
     0
 49
1.0
 74
     0
 49
-1.0
 74
     0
  0
ENDTAB
  0
TABLE
  2
LAYER
  5
2
330
0
100
AcDbSymbolTable
 70
     3
  0
LAYER
  5
10
330
2
100
AcDbSymbolTableRecord
100
AcDbLayerTableRecord
  2
0
 70
     0
 62
     7
  6
Continuous
370
    -3
390
F
  0
LAYER
  5
46
330
2
100
AcDbSymbolTableRecord
100
AcDbLayerTableRecord
  2
1
 70
     0
 62
     7
  6
Continuous
370
    -3
390
F
  0
LAYER
  5
47
330
2
100
AcDbSymbolTableRecord
100
AcDbLayerTableRecord
  2
10
 70
     0
 62
     7
  6
Continuous
370
    -3
390
F
  0
ENDTAB
  0
TABLE
  2
STYLE
  5
3
330
0
100
AcDbSymbolTable
 70
    10
  0
STYLE
  5
11
330
3
100
AcDbSymbolTableRecord
100
AcDbTextStyleTableRecord
  2
Standard
 70
     0
 40
0.0
 41
1.0
 50
0.0
 71
     0
 42
0.2
  3
txt
  4

  0
STYLE
  5
90
330
3
100
AcDbSymbolTableRecord
100
AcDbTextStyleTableRecord
  2
CONVERTER_11
 70
     0
 40
0.0
 41
0.765
 50
0.0
 71
     0
 42
0.2
  3
txt.shx
  4

  0
STYLE
  5
94
330
3
100
AcDbSymbolTableRecord
100
AcDbTextStyleTableRecord
  2
CONVERTER_12
 70
     0
 40
0.0
 41
0.9
 50
0.0
 71
     0
 42
0.2
  3
txt.shx
  4

  0
STYLE
  5
96
330
3
100
AcDbSymbolTableRecord
100
AcDbTextStyleTableRecord
  2
CONVERTER_13
 70
     0
 40
0.0
 41
0.81
 50
10.0
 71
     0
 42
0.2
  3
txt.shx
  4

  0
STYLE
  5
A2
330
3
100
AcDbSymbolTableRecord
100
AcDbTextStyleTableRecord
  2
CONVERTER_14
 70
     0
 40
0.0
 41
0.81
 50
0.0
 71
     0
 42
0.2
  3
txt.shx
  4

  0
STYLE
  5
A4
330
3
100
AcDbSymbolTableRecord
100
AcDbTextStyleTableRecord
  2
CONVERTER_15
 70
     0
 40
0.0
 41
0.99
 50
0.0
 71
     0
 42
0.2
  3
txt.shx
  4

  0
STYLE
  5
13E
330
3
100
AcDbSymbolTableRecord
100
AcDbTextStyleTableRecord
  2
CONVERTER_16
 70
     0
 40
0.0
 41
0.45
 50
0.0
 71
     0
 42
0.2
  3
txt.shx
  4

  0
STYLE
  5
141
330
3
100
AcDbSymbolTableRecord
100
AcDbTextStyleTableRecord
  2
CONVERTER_17
 70
     0
 40
0.0
 41
0.57
 50
0.0
 71
     0
 42
0.2
  3
simplex.shx
  4

  0
STYLE
  5
143
330
3
100
AcDbSymbolTableRecord
100
AcDbTextStyleTableRecord
  2
CONVERTER_18
 70
     0
 40
0.0
 41
0.744
 50
0.0
 71
     0
 42
0.2
  3
simplex.shx
  4

  0
STYLE
  5
145
330
3
100
AcDbSymbolTableRecord
100
AcDbTextStyleTableRecord
  2
CONVERTER_19
 70
     0
 40
0.0
 41
0.62
 50
0.0
 71
     0
 42
0.2
  3
simplex.shx
  4

  0
ENDTAB
  0
TABLE
  2
VIEW
  5
6
330
0
100
AcDbSymbolTable
 70
     0
  0
ENDTAB
  0
TABLE
  2
UCS
  5
7
330
0
100
AcDbSymbolTable
 70
     0
  0
ENDTAB
  0
TABLE
  2
APPID
  5
9
330
0
100
AcDbSymbolTable
 70
     1
  0
APPID
  5
12
330
9
100
AcDbSymbolTableRecord
100
AcDbRegAppTableRecord
  2
ACAD
 70
     0
  0
ENDTAB
  0
TABLE
  2
DIMSTYLE
  5
A
330
0
100
AcDbSymbolTable
 70
    16
100
AcDbDimStyleTable
  0
DIMSTYLE
105
27
330
A
100
AcDbSymbolTableRecord
100
AcDbDimStyleTableRecord
  2
Standard
 70
     0
178
     0
340
11
  0
DIMSTYLE
105
1C6
102
{ACAD_REACTORS
330
1C7
102
}
330
A
100
AcDbSymbolTableRecord
100
AcDbDimStyleTableRecord
  2
ME10_DIM_10
 70
     0
 41
7.0
 42
0.0
 44
4.0
 73
     0
 74
     0
 77
     1
 78
     8
140
7.0
147
3.2
172
     1
173
     1
174
     1
175
     1
176
     3
177
     3
271
     2
178
     2
271
     2
340
94
  0
DIMSTYLE
105
1D3
102
{ACAD_REACTORS
330
1D4
102
}
330
A
100
AcDbSymbolTableRecord
100
AcDbDimStyleTableRecord
  2
ME10_DIM_11
 70
     0
 41
7.0
 42
0.0
 44
4.0
 73
     0
 74
     0
 77
     1
 78
     8
140
7.0
147
3.2
172
     1
173
     1
174
     1
175
     1
176
     3
177
     3
271
     2
178
     2
271
     2
340
94
  0
DIMSTYLE
105
1DE
102
{ACAD_REACTORS
330
1DF
102
}
330
A
100
AcDbSymbolTableRecord
100
AcDbDimStyleTableRecord
  2
ME10_DIM_12
 70
     0
 41
7.0
 42
0.0
 44
4.0
 73
     0
 74
     0
 77
     1
 78
     8
140
7.0
147
3.2
172
     1
173
     1
174
     1
175
     1
176
     3
177
     3
271
     2
178
     2
271
     2
340
94
  0
DIMSTYLE
105
1E9
102
{ACAD_REACTORS
330
1EA
102
}
330
A
100
AcDbSymbolTableRecord
100
AcDbDimStyleTableRecord
  2
ME10_DIM_13
 70
     0
 41
7.0
 42
0.0
 44
4.0
 73
     0
 74
     0
 77
     1
 78
     8
140
7.0
147
3.2
172
     1
173
     1
174
     1
175
     1
176
     3
177
     3
271
     2
178
     2
271
     2
340
94
  0
DIMSTYLE
105
1F4
102
{ACAD_REACTORS
330
1F5
102
}
330
A
100
AcDbSymbolTableRecord
100
AcDbDimStyleTableRecord
  2
ME10_DIM_14
 70
     0
 41
7.0
 42
0.0
 44
4.0
 73
     0
 74
     0
 77
     1
 78
     8
140
7.0
147
3.2
172
     1
173
     1
174
     1
175
     1
176
     3
177
     3
271
     2
178
     2
271
     2
340
94
  0
DIMSTYLE
105
1FF
102
{ACAD_REACTORS
330
200
102
}
330
A
100
AcDbSymbolTableRecord
100
AcDbDimStyleTableRecord
  2
ME10_DIM_15
 70
     0
 41
7.0
 42
0.0
 44
4.0
 73
     0
 74
     0
 77
     1
 78
     8
140
7.0
147
3.2
172
     1
173
     1
174
     1
175
     1
176
     3
177
     3
271
     2
178
     2
271
     2
340
94
  0
DIMSTYLE
105
20A
102
{ACAD_REACTORS
330
20B
102
}
330
A
100
AcDbSymbolTableRecord
100
AcDbDimStyleTableRecord
  2
ME10_DIM_16
 70
     0
 41
7.0
 42
0.0
 44
4.0
 73
     0
 74
     0
 77
     1
 78
     8
140
7.0
147
3.2
172
     1
173
     1
174
     1
175
     1
176
     3
177
     3
271
     2
178
     2
271
     2
340
94
  0
DIMSTYLE
105
215
102
{ACAD_REACTORS
330
216
102
}
330
A
100
AcDbSymbolTableRecord
100
AcDbDimStyleTableRecord
  2
ME10_DIM_17
 70
     0
 41
7.0
 42
0.0
 44
4.0
 73
     0
 74
     0
 77
     1
 78
     8
140
7.0
147
3.2
172
     1
173
     1
174
     1
175
     1
176
     3
177
     3
271
     2
178
     2
271
     2
340
94
  0
DIMSTYLE
105
220
102
{ACAD_REACTORS
330
221
102
}
330
A
100
AcDbSymbolTableRecord
100
AcDbDimStyleTableRecord
  2
ME10_DIM_18
 70
     0
 41
7.0
 42
0.0
 44
4.0
 73
     0
 74
     0
 77
     1
 78
     8
140
7.0
147
3.2
172
     1
173
     1
174
     1
175
     1
176
     3
177
     3
271
     2
178
     2
271
     2
340
94
  0
DIMSTYLE
105
22B
102
{ACAD_REACTORS
330
22C
102
}
330
A
100
AcDbSymbolTableRecord
100
AcDbDimStyleTableRecord
  2
ME10_DIM_19
 70
     0
 41
7.0
 42
0.0
 44
4.0
 73
     0
 74
     0
 77
     1
 78
     8
140
7.0
147
3.2
172
     1
173
     1
174
     1
175
     1
176
     3
177
     3
271
     2
178
     2
271
     2
340
94
  0
DIMSTYLE
105
238
102
{ACAD_REACTORS
330
239
102
}
330
A
100
AcDbSymbolTableRecord
100
AcDbDimStyleTableRecord
  2
ME10_DIM_20
 70
     0
 41
7.0
 42
0.0
 44
4.0
 73
     0
 74
     0
 77
     1
 78
     8
140
7.0
147
3.2
172
     1
173
     1
174
     1
175
     1
176
     3
177
     3
271
     2
178
     2
271
     2
340
94
  0
DIMSTYLE
105
243
102
{ACAD_REACTORS
330
244
102
}
330
A
100
AcDbSymbolTableRecord
100
AcDbDimStyleTableRecord
  2
ME10_DIM_21
 70
     0
 41
7.0
 42
0.0
 44
4.0
 73
     0
 74
     0
 77
     1
 78
     8
140
7.0
147
3.2
172
     1
173
     1
174
     1
175
     1
176
     3
177
     3
271
     2
178
     2
271
     2
340
94
  0
DIMSTYLE
105
24E
102
{ACAD_REACTORS
330
24F
102
}
330
A
100
AcDbSymbolTableRecord
100
AcDbDimStyleTableRecord
  2
ME10_DIM_22
 70
     0
 41
7.0
 42
0.0
 44
4.0
 73
     0
 74
     0
 77
     1
 78
     8
140
7.0
147
3.2
172
     1
173
     1
174
     1
175
     1
176
     3
177
     3
271
     2
178
     2
271
     2
340
94
  0
DIMSTYLE
105
259
102
{ACAD_REACTORS
330
25A
102
}
330
A
100
AcDbSymbolTableRecord
100
AcDbDimStyleTableRecord
  2
ME10_DIM_23
 70
     0
 41
7.0
 42
0.0
 44
4.0
 73
     0
 74
     0
 77
     1
 78
     8
140
7.0
147
3.2
172
     1
173
     1
174
     1
175
     1
176
     3
177
     3
271
     2
178
     2
271
     2
340
94
  0
DIMSTYLE
105
264
102
{ACAD_REACTORS
330
265
102
}
330
A
100
AcDbSymbolTableRecord
100
AcDbDimStyleTableRecord
  2
ME10_DIM_24
 70
     0
 41
7.0
 42
0.0
 44
4.0
 73
     0
 74
     0
 77
     1
 78
     8
140
7.0
147
3.2
172
     1
173
     1
174
     1
175
     1
176
     3
177
     3
271
     2
178
     2
271
     2
340
94
  0
ENDTAB
  0
TABLE
  2
BLOCK_RECORD
  5
1
330
0
100
AcDbSymbolTable
 70
    20
  0
BLOCK_RECORD
  5
1F
330
1
100
AcDbSymbolTableRecord
100
AcDbBlockTableRecord
  2
*Model_Space
340
22
  0
BLOCK_RECORD
  5
1B
330
1
100
AcDbSymbolTableRecord
100
AcDbBlockTableRecord
  2
*Paper_Space
340
1E
  0
BLOCK_RECORD
  5
23
330
1
100
AcDbSymbolTableRecord
100
AcDbBlockTableRecord
  2
*Paper_Space0
340
26
  0
BLOCK_RECORD
  5
48
330
1
100
AcDbSymbolTableRecord
100
AcDbBlockTableRecord
  2
_schriftfeld_2000
340
0
102
{BLKREFS
331
4C
102
}
  0
BLOCK_RECORD
  5
4B
330
1
100
AcDbSymbolTableRecord
100
AcDbBlockTableRecord
  2
_tb_frame_A3_2000
340
0
102
{BLKREFS
331
52
102
}
  0
BLOCK_RECORD
  5
4F
330
1
100
AcDbSymbolTableRecord
100
AcDbBlockTableRecord
  2
_TD_WA50_de_gb_fr
340
0
102
{BLKREFS
331
53
102
}
  0
BLOCK_RECORD
  5
1BB
330
1
100
AcDbSymbolTableRecord
100
AcDbBlockTableRecord
  2
*D4
340
0
  0
BLOCK_RECORD
  5
1C8
330
1
100
AcDbSymbolTableRecord
100
AcDbBlockTableRecord
  2
*D5
340
0
  0
BLOCK_RECORD
  5
1D5
330
1
100
AcDbSymbolTableRecord
100
AcDbBlockTableRecord
  2
*D6
340
0
  0
BLOCK_RECORD
  5
1E0
330
1
100
AcDbSymbolTableRecord
100
AcDbBlockTableRecord
  2
*D7
340
0
  0
BLOCK_RECORD
  5
1EB
330
1
100
AcDbSymbolTableRecord
100
AcDbBlockTableRecord
  2
*D8
340
0
  0
BLOCK_RECORD
  5
1F6
330
1
100
AcDbSymbolTableRecord
100
AcDbBlockTableRecord
  2
*D9
340
0
  0
BLOCK_RECORD
  5
201
330
1
100
AcDbSymbolTableRecord
100
AcDbBlockTableRecord
  2
*D10
340
0
  0
BLOCK_RECORD
  5
20C
330
1
100
AcDbSymbolTableRecord
100
AcDbBlockTableRecord
  2
*D11
340
0
  0
BLOCK_RECORD
  5
217
330
1
100
AcDbSymbolTableRecord
100
AcDbBlockTableRecord
  2
*D12
340
0
  0
BLOCK_RECORD
  5
222
330
1
100
AcDbSymbolTableRecord
100
AcDbBlockTableRecord
  2
*D13
340
0
  0
BLOCK_RECORD
  5
22D
330
1
100
AcDbSymbolTableRecord
100
AcDbBlockTableRecord
  2
*D14
340
0
  0
BLOCK_RECORD
  5
23A
330
1
100
AcDbSymbolTableRecord
100
AcDbBlockTableRecord
  2
*D15
340
0
  0
BLOCK_RECORD
  5
245
330
1
100
AcDbSymbolTableRecord
100
AcDbBlockTableRecord
  2
*D16
340
0
  0
BLOCK_RECORD
  5
250
330
1
100
AcDbSymbolTableRecord
100
AcDbBlockTableRecord
  2
*D17
340
0
  0
BLOCK_RECORD
  5
25B
330
1
100
AcDbSymbolTableRecord
100
AcDbBlockTableRecord
  2
*D18
340
0
  0
BLOCK_RECORD
  5
266
330
1
100
AcDbSymbolTableRecord
100
AcDbBlockTableRecord
  2
*D19
340
0
102
{BLKREFS
331
271
102
}
  0
ENDTAB
  0
ENDSEC
  0
SECTION
  2
BLOCKS
  0
BLOCK
  5
20
330
1F
100
AcDbEntity
  8
0
100
AcDbBlockBegin
  2
*Model_Space
 70
     0
 10
0.0
 20
0.0
 30
0.0
  3
*Model_Space
  1

  0
ENDBLK
  5
21
330
1F
100
AcDbEntity
  8
0
100
AcDbBlockEnd
  0
BLOCK
  5
1C
330
1B
100
AcDbEntity
 67
     1
  8
0
100
AcDbBlockBegin
  2
*Paper_Space
 70
     0
 10
0.0
 20
0.0
 30
0.0
  3
*Paper_Space
  1

  0
ENDBLK
  5
1D
330
1B
100
AcDbEntity
 67
     1
  8
0
100
AcDbBlockEnd
  0
BLOCK
  5
24
330
23
100
AcDbEntity
  8
0
100
AcDbBlockBegin
  2
*Paper_Space0
 70
     0
 10
0.0
 20
0.0
 30
0.0
  3
*Paper_Space0
  1

  0
ENDBLK
  5
25
330
23
100
AcDbEntity
  8
0
100
AcDbBlockEnd
  0
BLOCK
  5
49
330
48
100
AcDbEntity
  8
0
100
AcDbBlockBegin
  2
_schriftfeld_2000
 70
     0
 10
199.7499954850161
 20
-269.8649536438293
 30
0.0
  3
_schriftfeld_2000
  1

  0
LINE
  5
54
330
48
100
AcDbEntity
  8
1
  6
Continuous
 62
     2
100
AcDbLine
 10
109.7499954850161
 20
-243.7649536438294
 30
0.0
 11
9.74999548501614
 21
-243.7649536438294
 31
0.0
  0
LINE
  5
55
330
48
100
AcDbEntity
  8
1
  6
Continuous
 62
     2
100
AcDbLine
 10
162.7499954850167
 20
-230.8649536438294
 30
0.0
 11
162.7499954850167
 21
-215.8649536438294
 31
0.0
  0
LINE
  5
56
102
{ACAD_REACTORS
330
E9
102
}
330
48
100
AcDbEntity
  8
1
  6
Continuous
 62
     2
100
AcDbLine
 10
68.01273718481303
 20
-261.7531787432201
 30
0.0
 11
70.27547888461024
 21
-259.4904370434231
 31
0.0
  0
LINE
  5
57
102
{ACAD_REACTORS
330
E9
102
}
330
48
100
AcDbEntity
  8
1
  6
Continuous
 62
     2
100
AcDbLine
 10
68.01273718481303
 20
-261.7531787432201
 30
0.0
 11
70.27547888461024
 21
-261.75317874322
 31
0.0
  0
LINE
  5
58
102
{ACAD_REACTORS
330
E9
102
}
330
48
100
AcDbEntity
  8
1
  6
Continuous
 62
     2
100
AcDbLine
 10
70.27547888461024
 20
-259.4904370434231
 30
0.0
 11
70.27547888461024
 21
-261.75317874322
 31
0.0
  0
LINE
  5
59
102
{ACAD_REACTORS
330
EA
102
}
330
48
100
AcDbEntity
  8
1
  6
Continuous
 62
     2
100
AcDbLine
 10
78.00096228420415
 20
-253.3649536438292
 30
0.0
 11
65.74999548501614
 21
-253.3649536438294
 31
0.0
  0
LINE
  5
5A
102
{ACAD_REACTORS
330
EA
102
}
330
48
100
AcDbEntity
  8
1
  6
Continuous
 62
     2
100
AcDbLine
 10
65.74999548501614
 20
-253.3649536438294
 30
0.0
 11
65.74999548501614
 21
-261.75317874322
 31
0.0
  0
LINE
  5
5B
102
{ACAD_REACTORS
330
EA
102
}
330
48
100
AcDbEntity
  8
1
  6
Continuous
 62
     2
100
AcDbLine
 10
65.74999548501614
 20
-261.75317874322
 30
0.0
 11
68.01273718481303
 21
-261.7531787432201
 31
0.0
  0
LINE
  5
5C
102
{ACAD_REACTORS
330
EA
102
}
330
48
100
AcDbEntity
  8
1
  6
Continuous
 62
     2
100
AcDbLine
 10
65.74999548501614
 20
-259.4904370434231
 30
0.0
 11
68.01273718481303
 21
-261.7531787432201
 31
0.0
  0
LINE
  5
5D
102
{ACAD_REACTORS
330
EA
102
}
330
48
100
AcDbEntity
  8
1
  6
Continuous
 62
     2
100
AcDbLine
 10
71.87547888461015
 20
-253.3649536438292
 30
0.0
 11
65.74999548501614
 21
-259.4904370434231
 31
0.0
  0
LINE
  5
5E
102
{ACAD_REACTORS
330
EA
102
}
330
48
100
AcDbEntity
  8
1
  6
Continuous
 62
     2
100
AcDbLine
 10
78.00096228420415
 20
-259.4904370434231
 30
0.0
 11
71.87547888461015
 21
-253.3649536438292
 31
0.0
  0
LINE
  5
5F
102
{ACAD_REACTORS
330
EA
102
}
330
48
100
AcDbEntity
  8
1
  6
Continuous
 62
     2
100
AcDbLine
 10
75.73822058440714
 20
-261.7531787432201
 30
0.0
 11
78.00096228420415
 21
-259.4904370434231
 31
0.0
  0
LINE
  5
60
102
{ACAD_REACTORS
330
EA
102
}
330
48
100
AcDbEntity
  8
1
  6
Continuous
 62
     2
100
AcDbLine
 10
75.73822058440714
 20
-261.7531787432201
 30
0.0
 11
78.00096228420415
 21
-261.75317874322
 31
0.0
  0
LINE
  5
61
102
{ACAD_REACTORS
330
EA
102
}
330
48
100
AcDbEntity
  8
1
  6
Continuous
 62
     2
100
AcDbLine
 10
78.00096228420415
 20
-261.75317874322
 30
0.0
 11
78.00096228420415
 21
-253.3649536438292
 31
0.0
  0
LINE
  5
62
102
{ACAD_REACTORS
330
EB
102
}
330
48
100
AcDbEntity
  8
1
  6
Continuous
 62
     2
100
AcDbLine
 10
73.47547888461034
 20
-259.4904370434231
 30
0.0
 11
75.73822058440714
 21
-261.7531787432201
 31
0.0
  0
LINE
  5
63
102
{ACAD_REACTORS
330
EB
102
}
330
48
100
AcDbEntity
  8
1
  6
Continuous
 62
     2
100
AcDbLine
 10
73.47547888461034
 20
-261.75317874322
 30
0.0
 11
73.47547888461034
 21
-259.4904370434231
 31
0.0
  0
LINE
  5
64
102
{ACAD_REACTORS
330
EB
102
}
330
48
100
AcDbEntity
  8
1
  6
Continuous
 62
     2
100
AcDbLine
 10
73.47547888461034
 20
-261.75317874322
 30
0.0
 11
75.73822058440714
 21
-261.7531787432201
 31
0.0
  0
LINE
  5
65
330
48
100
AcDbEntity
  8
1
  6
Continuous
 62
     4
100
AcDbLine
 10
199.7499954850165
 20
-215.8649536438292
 30
0.0
 11
199.7499954850161
 21
-269.8649536438293
 31
0.0
  0
LINE
  5
66
330
48
100
AcDbEntity
  8
1
  6
Continuous
 62
     7
100
AcDbLine
 10
9.74999548501614
 20
-230.8649536438294
 30
0.0
 11
89.74999548501614
 21
-230.8649536438294
 31
0.0
  0
LINE
  5
67
330
48
100
AcDbEntity
  8
1
  6
Continuous
 62
     2
100
AcDbLine
 10
9.74999548501614
 20
-235.1649536438293
 30
0.0
 11
109.7499954850161
 21
-235.1649536438293
 31
0.0
  0
LINE
  5
68
330
48
100
AcDbEntity
  8
1
  6
Continuous
 62
     2
100
AcDbLine
 10
9.74999548501614
 20
-252.3649536438294
 30
0.0
 11
64.74999548501614
 21
-252.3649536438294
 31
0.0
  0
LINE
  5
69
330
48
100
AcDbEntity
  8
1
  6
Continuous
 62
     2
100
AcDbLine
 10
9.74999548501614
 20
-256.6649536438293
 30
0.0
 11
64.74999548501614
 21
-256.6649536438293
 31
0.0
  0
LINE
  5
6A
330
48
100
AcDbEntity
  8
1
  6
Continuous
 62
     2
100
AcDbLine
 10
9.74999548501614
 20
-260.9649536438292
 30
0.0
 11
64.74999548501614
 21
-260.9649536438292
 31
0.0
  0
LINE
  5
6B
330
48
100
AcDbEntity
  8
1
  6
Continuous
 62
     2
100
AcDbLine
 10
109.7499954850161
 20
-239.4649536438295
 30
0.0
 11
9.74999548501614
 21
-239.4649536438295
 31
0.0
  0
LINE
  5
6C
330
48
100
AcDbEntity
  8
1
  6
Continuous
 62
     2
100
AcDbLine
 10
9.74999548501614
 20
-248.0649536438295
 30
0.0
 11
109.7499954850161
 21
-248.0649536438295
 31
0.0
  0
LINE
  5
6D
330
48
100
AcDbEntity
  8
1
  6
Continuous
 62
     7
100
AcDbLine
 10
64.74999548501614
 20
-269.8649536438293
 30
0.0
 11
64.74999548501614
 21
-225.3649536438294
 31
0.0
  0
LINE
  5
6E
330
48
100
AcDbEntity
  8
1
  6
Continuous
 62
     2
100
AcDbLine
 10
15.74999548501614
 20
-269.8649536438293
 30
0.0
 11
15.74999548501614
 21
-230.8649536438294
 31
0.0
  0
LINE
  5
6F
330
48
100
AcDbEntity
  8
1
  6
Continuous
 62
     2
100
AcDbLine
 10
30.74999548501614
 20
-269.8649536438293
 30
0.0
 11
30.74999548501614
 21
-230.8649536438294
 31
0.0
  0
LINE
  5
70
330
48
100
AcDbEntity
  8
1
  6
Continuous
 62
     2
100
AcDbLine
 10
44.74999548501614
 20
-269.8649536438293
 30
0.0
 11
44.74999548501614
 21
-230.8649536438294
 31
0.0
  0
LINE
  5
71
330
48
100
AcDbEntity
  8
1
  6
Continuous
 62
     2
100
AcDbLine
 10
75.74999548501614
 20
-252.3649536438294
 30
0.0
 11
75.74999548501614
 21
-230.8649536438294
 31
0.0
  0
LINE
  5
72
330
48
100
AcDbEntity
  8
1
  6
Continuous
 62
     7
100
AcDbLine
 10
64.74999548501614
 20
-252.3649536438294
 30
0.0
 11
199.7499954850161
 21
-252.3649536438294
 31
0.0
  0
LINE
  5
73
330
48
100
AcDbEntity
  8
1
  6
Continuous
 62
     7
100
AcDbLine
 10
109.7499954850161
 20
-215.8649536438294
 30
0.0
 11
109.7499954850161
 21
-225.3649536438294
 31
0.0
  0
LINE
  5
74
330
48
100
AcDbEntity
  8
1
  6
Continuous
 62
     7
100
AcDbLine
 10
154.7499954850161
 20
-265.2649536438294
 30
0.0
 11
154.7499954850161
 21
-269.8649536438293
 31
0.0
  0
LINE
  5
75
330
48
100
AcDbEntity
  8
1
  6
Continuous
 62
     4
100
AcDbLine
 10
9.74999548501614
 20
-269.8649536438293
 30
0.0
 11
199.7499954850161
 21
-269.8649536438293
 31
0.0
  0
LINE
  5
76
330
48
100
AcDbEntity
  8
1
  6
Continuous
 62
     7
100
AcDbLine
 10
187.7499954850152
 20
-252.3649536438294
 30
0.0
 11
187.7499954850152
 21
-265.2649536438294
 31
0.0
  0
LINE
  5
77
330
48
100
AcDbEntity
  8
1
  6
Continuous
 62
     7
100
AcDbLine
 10
199.7499954850161
 20
-265.2649536438294
 30
0.0
 11
9.74999548501614
 21
-265.2649536438294
 31
0.0
  0
LINE
  5
78
330
48
100
AcDbEntity
  8
1
  6
Continuous
 62
     4
100
AcDbLine
 10
9.74999548501603
 20
-215.8649536438292
 30
0.0
 11
9.74999548501603
 21
-222.8649536438294
 31
0.0
  0
LINE
  5
79
330
48
100
AcDbEntity
  8
1
  6
Continuous
 62
     4
100
AcDbLine
 10
9.74999548501603
 20
-215.8649536438292
 30
0.0
 11
199.7499954850165
 21
-215.8649536438292
 31
0.0
  0
LINE
  5
7A
330
48
100
AcDbEntity
  8
1
  6
Continuous
 62
     7
100
AcDbLine
 10
109.7499954850161
 20
-221.8649536438294
 30
0.0
 11
199.7499954850161
 21
-221.8649536438294
 31
0.0
  0
LINE
  5
7B
330
48
100
AcDbEntity
  8
1
  6
Continuous
 62
     2
100
AcDbLine
 10
44.74999548501614
 20
-230.8649536438294
 30
0.0
 11
44.74999548501614
 21
-222.8649536438294
 31
0.0
  0
LINE
  5
7C
330
48
100
AcDbEntity
  8
1
  6
DOT_CENTER
 62
     3
100
AcDbLine
 10
58.76839920148774
 20
-230.1049536438291
 30
0.0
 11
58.76839920148774
 21
-223.6249536438293
 31
0.0
  0
LINE
  5
7D
330
48
100
AcDbEntity
  8
1
  6
DOT_CENTER
 62
     3
100
AcDbLine
 10
47.66895109228153
 20
-226.8649536438294
 30
0.0
 11
62.43895109228154
 21
-226.8649536438294
 31
0.0
  0
LINE
  5
7E
330
48
100
AcDbEntity
  8
1
  6
Continuous
 62
     2
100
AcDbLine
 10
48.41289920148765
 20
-228.2824536438292
 30
0.0
 11
54.08289920148764
 21
-229.6999536438293
 31
0.0
  0
LINE
  5
7F
330
48
100
AcDbEntity
  8
1
  6
Continuous
 62
     2
100
AcDbLine
 10
48.41289920148765
 20
-225.4474536438293
 30
0.0
 11
48.41289920148765
 21
-228.2824536438292
 31
0.0
  0
LINE
  5
80
330
48
100
AcDbEntity
  8
1
  6
Continuous
 62
     2
100
AcDbLine
 10
54.08289920148764
 20
-224.0299536438293
 30
0.0
 11
48.41289920148765
 21
-225.4474536438293
 31
0.0
  0
LINE
  5
81
330
48
100
AcDbEntity
  8
1
  6
Continuous
 62
     2
100
AcDbLine
 10
54.08289920148764
 20
-229.6999536438293
 30
0.0
 11
54.08289920148764
 21
-224.0299536438293
 31
0.0
  0
LINE
  5
82
330
48
100
AcDbEntity
  8
1
  6
Continuous
 62
     2
100
AcDbLine
 10
64.74999548501614
 20
-222.8649536438294
 30
0.0
 11
44.74999548501614
 21
-222.8649536438294
 31
0.0
  0
LINE
  5
83
330
48
100
AcDbEntity
  8
1
  6
Continuous
 62
     2
100
AcDbLine
 10
135.7499954850161
 20
-265.2649536438294
 30
0.0
 11
135.7499954850161
 21
-252.3649536438294
 31
0.0
  0
LINE
  5
84
330
48
100
AcDbEntity
  8
1
  6
Continuous
 62
     7
100
AcDbLine
 10
109.7499954850161
 20
-225.3649536438294
 30
0.0
 11
89.74999548501614
 21
-225.3649536438294
 31
0.0
  0
LINE
  5
85
330
48
100
AcDbEntity
  8
1
  6
Continuous
 62
     2
100
AcDbLine
 10
89.74999548501614
 20
-225.3649536438294
 30
0.0
 11
89.74999548501614
 21
-215.8649536438294
 31
0.0
  0
LINE
  5
86
330
48
100
AcDbEntity
  8
1
  6
Continuous
 62
     7
100
AcDbLine
 10
109.7499954850161
 20
-225.3649536438294
 30
0.0
 11
109.7499954850161
 21
-269.8649536438293
 31
0.0
  0
LINE
  5
87
330
48
100
AcDbEntity
  8
1
  6
Continuous
 62
     7
100
AcDbLine
 10
89.74999548501614
 20
-225.3649536438294
 30
0.0
 11
64.74999548501614
 21
-225.3649536438294
 31
0.0
  0
LINE
  5
88
330
48
100
AcDbEntity
  8
1
  6
Continuous
 62
     7
100
AcDbLine
 10
64.74999548501614
 20
-225.3649536438294
 30
0.0
 11
64.74999548501614
 21
-215.8649536438294
 31
0.0
  0
LINE
  5
89
330
48
100
AcDbEntity
  8
1
  6
Continuous
 62
     2
100
AcDbLine
 10
89.74999548501614
 20
-252.3649536438294
 30
0.0
 11
89.74999548501614
 21
-230.8649536438294
 31
0.0
  0
LINE
  5
8A
330
48
100
AcDbEntity
  8
1
  6
Continuous
 62
     7
100
AcDbLine
 10
89.74999548501614
 20
-230.8649536438294
 30
0.0
 11
199.7499954850161
 21
-230.8649536438294
 31
0.0
  0
LINE
  5
8B
330
48
100
AcDbEntity
  8
1
  6
Continuous
 62
     2
100
AcDbLine
 10
44.74999548501614
 20
-222.8649536438294
 30
0.0
 11
9.74999548501603
 21
-222.8649536438294
 31
0.0
  0
LINE
  5
8C
330
48
100
AcDbEntity
  8
1
  6
Continuous
 62
     4
100
AcDbLine
 10
9.74999548501603
 20
-222.8649536438294
 30
0.0
 11
9.74999548501614
 21
-269.8649536438293
 31
0.0
  0
LINE
  5
8D
330
48
100
AcDbEntity
  8
1
  6
Continuous
 62
     2
100
AcDbLine
 10
44.74999548501614
 20
-222.8649536438294
 30
0.0
 11
44.74999548501614
 21
-215.8649536438292
 31
0.0
  0
CIRCLE
  5
8E
330
48
100
AcDbEntity
  8
1
  6
Continuous
 62
     2
100
AcDbCircle
 10
58.76839920148774
 20
-226.8649536438294
 30
0.0
 40
1.417499999999905
  0
CIRCLE
  5
8F
330
48
100
AcDbEntity
  8
1
  6
Continuous
 62
     2
100
AcDbCircle
 10
58.76839920148774
 20
-226.8649536438294
 30
0.0
 40
2.834999999999894
  0
MTEXT
  5
91
330
48
100
AcDbEntity
  8
1
 62
     2
100
AcDbMText
 10
77.24999548501614
 20
-221.517169640684
 30
0.0
 40
2.0
 41
0.0
 71
     5
 72
     1
  1
ISO 2768-c-E
  7
CONVERTER_11
 73
     1
 44
1.32052821128451
  0
MTEXT
  5
92
330
48
100
AcDbEntity
  8
1
 62
     2
100
AcDbMText
 10
90.74999548501614
 20
-250.2149536438295
 30
0.0
 40
2.0
 41
0.0
 71
     4
 72
     1
  1
 
  7
CONVERTER_11
 73
     1
 44
1.32052821128451
  0
MTEXT
  5
93
330
48
100
AcDbEntity
  8
1
 62
     2
100
AcDbMText
 10
76.74999548501614
 20
-250.2149536438295
 30
0.0
 40
2.0
 41
0.0
 71
     4
 72
     1
  1
 
  7
CONVERTER_11
 73
     1
 44
1.32052821128451
  0
MTEXT
  5
95
330
48
100
AcDbEntity
  8
1
 62
     2
100
AcDbMText
 10
42.92175500045414
 20
-220.531620310496
 30
0.0
 40
2.0
 41
0.0
 71
     6
 72
     1
  1
 
  7
CONVERTER_12
 73
     1
 44
1.32052821128451
  0
MTEXT
  5
97
330
48
100
AcDbEntity
  8
1
 62
     3
100
AcDbMText
 10
163.7499954850167
 20
-222.8649536438294
 30
0.0
 40
1.8
 41
0.0
 71
     1
 72
     1
  1
Halbzeug/\PRohteil-Nr.
  7
CONVERTER_13
 73
     1
 44
1.02040816326531
  0
MTEXT
  5
98
330
48
100
AcDbEntity
  8
1
 62
     3
100
AcDbMText
 10
27.24999548501614
 20
-226.8649536438294
 30
0.0
 40
1.8
 41
0.0
 71
     5
 72
     1
  1
Schutzvermerk\PISO 16016 beachten
  7
CONVERTER_13
 73
     1
 44
1.02040816326531
  0
MTEXT
  5
99
330
48
100
AcDbEntity
  8
1
 62
     3
100
AcDbMText
 10
188.7499954850152
 20
-253.3649536438294
 30
0.0
 40
1.8
 41
0.0
 71
     1
 72
     1
  1
Blatt
  7
CONVERTER_13
 73
     1
 44
1.68067226890756
  0
MTEXT
  5
9A
330
48
100
AcDbEntity
  8
1
 62
     3
100
AcDbMText
 10
90.74999548501614
 20
-216.8649536438294
 30
0.0
 40
1.8
 41
0.0
 71
     1
 72
     1
  1
Ma\U+00dfstab
  7
CONVERTER_13
 73
     1
 44
1.68067226890756
  0
MTEXT
  5
9B
330
48
100
AcDbEntity
  8
1
 62
     3
100
AcDbMText
 10
155.7499954850161
 20
-267.5813796057361
 30
0.0
 40
1.8
 41
0.0
 71
     4
 72
     1
  1
Ers. durch
  7
CONVERTER_13
 73
     1
 44
1.68067226890756
  0
MTEXT
  5
9C
330
48
100
AcDbEntity
  8
1
 62
     3
100
AcDbMText
 10
110.7499954850161
 20
-267.5813796057361
 30
0.0
 40
1.8
 41
0.0
 71
     4
 72
     1
  1
Ersatz f\U+00fcr
  7
CONVERTER_13
 73
     1
 44
1.68067226890756
  0
MTEXT
  5
9D
330
48
100
AcDbEntity
  8
1
 62
     3
100
AcDbMText
 10
65.74999548501614
 20
-267.5813796057361
 30
0.0
 40
1.8
 41
0.0
 71
     4
 72
     1
  1
Ursprung
  7
CONVERTER_13
 73
     1
 44
1.68067226890756
  0
MTEXT
  5
9E
330
48
100
AcDbEntity
  8
1
 62
     3
100
AcDbMText
 10
54.74999548501614
 20
-267.5813796057361
 30
0.0
 40
1.8
 41
0.0
 71
     5
 72
     1
  1
Name
  7
CONVERTER_13
 73
     1
 44
1.68067226890756
  0
MTEXT
  5
9F
330
48
100
AcDbEntity
  8
1
 62
     3
100
AcDbMText
 10
37.74999548501614
 20
-267.5813796057361
 30
0.0
 40
1.8
 41
0.0
 71
     5
 72
     1
  1
Datum
  7
CONVERTER_13
 73
     1
 44
1.68067226890756
  0
MTEXT
  5
A0
330
48
100
AcDbEntity
  8
1
 62
     3
100
AcDbMText
 10
23.24999548501614
 20
-267.5813796057361
 30
0.0
 40
1.8
 41
0.0
 71
     5
 72
     1
  1
\U+00c4nderung
  7
CONVERTER_13
 73
     1
 44
1.68067226890756
  0
MTEXT
  5
A1
330
48
100
AcDbEntity
  8
1
 62
     3
100
AcDbMText
 10
12.74999548501614
 20
-267.5813796057361
 30
0.0
 40
1.8
 41
0.0
 71
     5
 72
     1
  1
Zust.
  7
CONVERTER_13
 73
     1
 44
1.68067226890756
  0
MTEXT
  5
A3
330
48
100
AcDbEntity
  8
1
 62
     3
100
AcDbMText
 10
79.50096228420415
 20
-258.8149536438294
 30
0.0
 40
1.6
 41
0.0
 71
     4
 72
     1
  1
haacon hebetechnik gmbh\PJosef-Haamann-Stra\U+00dfe 6\PD-97896 Freudenberg/Main
  7
CONVERTER_14
 73
     1
 44
1.68067226890756
  0
MTEXT
  5
A5
330
48
100
AcDbEntity
  8
1
 62
     7
100
AcDbMText
 10
71.87664772757824
 20
-264.3564958535993
 30
0.0
 40
2.0
 41
0.0
 71
     8
 72
     1
  1
haacon
  7
CONVERTER_15
 73
     1
 44
1.50060024009604
  0
MTEXT
  5
A6
330
48
100
AcDbEntity
  8
1
 62
     3
100
AcDbMText
 10
65.74999548501614
 20
-237.3149536438295
 30
0.0
 40
1.8
 41
0.0
 71
     4
 72
     1
  1
Bearb.
  7
CONVERTER_13
 73
     1
 44
1.68067226890756
  0
MTEXT
  5
A7
330
48
100
AcDbEntity
  8
1
 62
     3
100
AcDbMText
 10
65.74999548501614
 20
-241.4302564976609
 30
0.0
 40
1.8
 41
0.0
 71
     4
 72
     1
  1
Gepr.
  7
CONVERTER_13
 73
     1
 44
1.68067226890756
  0
MTEXT
  5
A8
330
48
100
AcDbEntity
  8
1
 62
     3
100
AcDbMText
 10
65.74999548501614
 20
-245.9149536438293
 30
0.0
 40
1.8
 41
0.0
 71
     4
 72
     1
  1
Norm.
  7
CONVERTER_13
 73
     1
 44
1.68067226890756
  0
MTEXT
  5
A9
330
48
100
AcDbEntity
  8
1
 62
     3
100
AcDbMText
 10
76.74999548501614
 20
-233.0149536438294
 30
0.0
 40
1.8
 41
0.0
 71
     4
 72
     1
  1
Datum
  7
CONVERTER_13
 73
     1
 44
1.68067226890756
  0
MTEXT
  5
AA
330
48
100
AcDbEntity
  8
1
 62
     3
100
AcDbMText
 10
90.74999548501614
 20
-233.0149536438294
 30
0.0
 40
1.8
 41
0.0
 71
     4
 72
     1
  1
Name
  7
CONVERTER_13
 73
     1
 44
1.68067226890756
  0
MTEXT
  5
AB
330
48
100
AcDbEntity
  8
1
 62
     3
100
AcDbMText
 10
65.74999548501614
 20
-216.8649536438294
 30
0.0
 40
1.8
 41
0.0
 71
     1
 72
     1
  1
Allgemeintoleranz
  7
CONVERTER_13
 73
     1
 44
1.02040816326531
  0
MTEXT
  5
AC
330
48
100
AcDbEntity
  8
1
 62
     3
100
AcDbMText
 10
110.7499954850161
 20
-222.8649536438294
 30
0.0
 40
1.8
 41
0.0
 71
     1
 72
     1
  1
Werkstoff
  7
CONVERTER_13
 73
     1
 44
1.02040816326531
  0
MTEXT
  5
AD
330
48
100
AcDbEntity
  8
1
 62
     3
100
AcDbMText
 10
110.7499954850161
 20
-253.3649536438294
 30
0.0
 40
1.8
 41
0.0
 71
     1
 72
     1
  1
Klassifizierungs-Nr.
  7
CONVERTER_13
 73
     1
 44
1.68067226890756
  0
MTEXT
  5
AE
330
48
100
AcDbEntity
  8
1
 62
     2
100
AcDbMText
 10
178.8240616352047
 20
-226.3649536438294
 30
0.0
 40
3.0
 41
0.0
 71
     4
 72
     1
  1
 
  7
CONVERTER_12
 73
     1
 44
1.32052821128451
  0
MTEXT
  5
AF
330
48
100
AcDbEntity
  8
1
 62
     2
100
AcDbMText
 10
136.1938389575965
 20
-227.8649536438294
 30
0.0
 40
3.0
 41
0.0
 71
     5
 72
     1
  1
 
  7
CONVERTER_12
 73
     1
 44
1.32052821128451
  0
MTEXT
  5
B0
330
48
100
AcDbEntity
  8
1
 62
     7
100
AcDbMText
 10
112.7499954850161
 20
-241.6149536438294
 30
0.0
 40
4.0
 41
0.0
 71
     4
 72
     1
  1
Handseilwinde WA 50 mit\Pabnehmbarer Kurbel
  7
CONVERTER_14
 73
     1
 44
1.14045618247299
  0
MTEXT
  5
B1
330
48
100
AcDbEntity
  8
1
 62
     2
100
AcDbMText
 10
193.7499954850161
 20
-259.8149536438294
 30
0.0
 40
3.0
 41
0.0
 71
     5
 72
     1
  1
1
  7
CONVERTER_12
 73
     1
 44
1.32052821128451
  0
MTEXT
  5
B2
330
48
100
AcDbEntity
  8
1
 62
     2
100
AcDbMText
 10
171.7499954850161
 20
-267.5813796057361
 30
0.0
 40
2.0
 41
0.0
 71
     4
 72
     1
  1
 
  7
CONVERTER_11
 73
     1
 44
1.32052821128451
  0
MTEXT
  5
B3
330
48
100
AcDbEntity
  8
1
 62
     2
100
AcDbMText
 10
126.7499954850161
 20
-267.5813796057361
 30
0.0
 40
2.0
 41
0.0
 71
     4
 72
     1
  1
 
  7
CONVERTER_11
 73
     1
 44
1.32052821128451
  0
MTEXT
  5
B4
330
48
100
AcDbEntity
  8
1
 62
     7
100
AcDbMText
 10
99.74999548501614
 20
-222.017169640684
 30
0.0
 40
4.5
 41
0.0
 71
     5
 72
     1
  1
1:2
  7
CONVERTER_14
 73
     1
 44
1.14045618247299
  0
MTEXT
  5
B5
330
48
100
AcDbEntity
  8
1
 62
     2
100
AcDbMText
 10
76.74999548501614
 20
-245.9149536438293
 30
0.0
 40
2.0
 41
0.0
 71
     4
 72
     1
  1
13.02.01
  7
CONVERTER_11
 73
     1
 44
1.32052821128451
  0
MTEXT
  5
B6
330
48
100
AcDbEntity
  8
1
 62
     2
100
AcDbMText
 10
76.74999548501614
 20
-241.6149536438294
 30
0.0
 40
2.0
 41
0.0
 71
     4
 72
     1
  1
13.02.01
  7
CONVERTER_11
 73
     1
 44
1.32052821128451
  0
MTEXT
  5
B7
330
48
100
AcDbEntity
  8
1
 62
     2
100
AcDbMText
 10
76.74999548501614
 20
-237.3149536438295
 30
0.0
 40
2.0
 41
0.0
 71
     4
 72
     1
  1
15.06.00
  7
CONVERTER_11
 73
     1
 44
1.32052821128451
  0
MTEXT
  5
B8
330
48
100
AcDbEntity
  8
1
 62
     2
100
AcDbMText
 10
90.74999548501614
 20
-237.3149536438295
 30
0.0
 40
2.0
 41
0.0
 71
     4
 72
     1
  1
Mayer
  7
CONVERTER_11
 73
     1
 44
1.32052821128451
  0
MTEXT
  5
B9
330
48
100
AcDbEntity
  8
1
 62
     2
100
AcDbMText
 10
90.74999548501614
 20
-241.6149536438294
 30
0.0
 40
2.0
 41
0.0
 71
     4
 72
     1
  1
Rosbach
  7
CONVERTER_11
 73
     1
 44
1.32052821128451
  0
MTEXT
  5
BA
330
48
100
AcDbEntity
  8
1
 62
     2
100
AcDbMText
 10
90.74999548501614
 20
-245.9149536438293
 30
0.0
 40
2.0
 41
0.0
 71
     4
 72
     1
  1
Rosbach
  7
CONVERTER_11
 73
     1
 44
1.32052821128451
  0
MTEXT
  5
BB
330
48
100
AcDbEntity
  8
1
 62
     2
100
AcDbMText
 10
81.74999548501614
 20
-267.5813796057361
 30
0.0
 40
2.0
 41
0.0
 71
     4
 72
     1
  1
 
  7
CONVERTER_11
 73
     1
 44
1.32052821128451
  0
MTEXT
  5
BC
330
48
100
AcDbEntity
  8
1
 62
     2
100
AcDbMText
 10
12.74999548501614
 20
-263.1149536438293
 30
0.0
 40
2.0
 41
0.0
 71
     5
 72
     1
  1
2
  7
CONVERTER_11
 73
     1
 44
1.32052821128451
  0
MTEXT
  5
BD
330
48
100
AcDbEntity
  8
1
 62
     2
100
AcDbMText
 10
12.74999548501614
 20
-258.8149536438294
 30
0.0
 40
2.0
 41
0.0
 71
     5
 72
     1
  1
3
  7
CONVERTER_11
 73
     1
 44
1.32052821128451
  0
MTEXT
  5
BE
330
48
100
AcDbEntity
  8
1
 62
     2
100
AcDbMText
 10
12.74999548501614
 20
-254.5149536438292
 30
0.0
 40
2.0
 41
0.0
 71
     5
 72
     1
  1
 
  7
CONVERTER_11
 73
     1
 44
1.32052821128451
  0
MTEXT
  5
BF
330
48
100
AcDbEntity
  8
1
 62
     2
100
AcDbMText
 10
12.74999548501614
 20
-250.2149536438292
 30
0.0
 40
2.0
 41
0.0
 71
     5
 72
     1
  1
 
  7
CONVERTER_11
 73
     1
 44
1.32052821128451
  0
MTEXT
  5
C0
330
48
100
AcDbEntity
  8
1
 62
     2
100
AcDbMText
 10
12.74999548501614
 20
-245.9149536438291
 30
0.0
 40
2.0
 41
0.0
 71
     5
 72
     1
  1
 
  7
CONVERTER_11
 73
     1
 44
1.32052821128451
  0
MTEXT
  5
C1
330
48
100
AcDbEntity
  8
1
 62
     2
100
AcDbMText
 10
12.74999548501614
 20
-241.614953643829
 30
0.0
 40
2.0
 41
0.0
 71
     5
 72
     1
  1
 
  7
CONVERTER_11
 73
     1
 44
1.32052821128451
  0
MTEXT
  5
C2
330
48
100
AcDbEntity
  8
1
 62
     2
100
AcDbMText
 10
12.74999548501614
 20
-237.314953643829
 30
0.0
 40
2.0
 41
0.0
 71
     5
 72
     1
  1
 
  7
CONVERTER_11
 73
     1
 44
1.32052821128451
  0
MTEXT
  5
C3
330
48
100
AcDbEntity
  8
1
 62
     2
100
AcDbMText
 10
12.74999548501614
 20
-233.014953643829
 30
0.0
 40
2.0
 41
0.0
 71
     5
 72
     1
  1
 
  7
CONVERTER_11
 73
     1
 44
1.32052821128451
  0
MTEXT
  5
C4
330
48
100
AcDbEntity
  8
1
 62
     2
100
AcDbMText
 10
16.74999548501614
 20
-233.014953643829
 30
0.0
 40
2.0
 41
0.0
 71
     4
 72
     1
  1
 
  7
CONVERTER_11
 73
     1
 44
1.32052821128451
  0
MTEXT
  5
C5
330
48
100
AcDbEntity
  8
1
 62
     2
100
AcDbMText
 10
16.74999548501614
 20
-237.314953643829
 30
0.0
 40
2.0
 41
0.0
 71
     4
 72
     1
  1
 
  7
CONVERTER_11
 73
     1
 44
1.32052821128451
  0
MTEXT
  5
C6
330
48
100
AcDbEntity
  8
1
 62
     2
100
AcDbMText
 10
16.74999548501614
 20
-241.614953643829
 30
0.0
 40
2.0
 41
0.0
 71
     4
 72
     1
  1
 
  7
CONVERTER_11
 73
     1
 44
1.32052821128451
  0
MTEXT
  5
C7
330
48
100
AcDbEntity
  8
1
 62
     2
100
AcDbMText
 10
16.74999548501614
 20
-245.9149536438291
 30
0.0
 40
2.0
 41
0.0
 71
     4
 72
     1
  1
 
  7
CONVERTER_11
 73
     1
 44
1.32052821128451
  0
MTEXT
  5
C8
330
48
100
AcDbEntity
  8
1
 62
     2
100
AcDbMText
 10
16.74999548501614
 20
-250.2149536438292
 30
0.0
 40
2.0
 41
0.0
 71
     4
 72
     1
  1
 
  7
CONVERTER_11
 73
     1
 44
1.32052821128451
  0
MTEXT
  5
C9
330
48
100
AcDbEntity
  8
1
 62
     2
100
AcDbMText
 10
16.74999548501614
 20
-254.5149536438292
 30
0.0
 40
2.0
 41
0.0
 71
     4
 72
     1
  1
 
  7
CONVERTER_11
 73
     1
 44
1.32052821128451
  0
MTEXT
  5
CA
330
48
100
AcDbEntity
  8
1
 62
     2
100
AcDbMText
 10
16.74999548501614
 20
-258.8149536438294
 30
0.0
 40
2.0
 41
0.0
 71
     4
 72
     1
  1
---
  7
CONVERTER_11
 73
     1
 44
1.32052821128451
  0
MTEXT
  5
CB
330
48
100
AcDbEntity
  8
1
 62
     2
100
AcDbMText
 10
16.74999548501614
 20
-263.1149536438293
 30
0.0
 40
2.0
 41
0.0
 71
     4
 72
     1
  1
---
  7
CONVERTER_11
 73
     1
 44
1.32052821128451
  0
MTEXT
  5
CC
330
48
100
AcDbEntity
  8
1
 62
     2
100
AcDbMText
 10
31.74999548501614
 20
-263.1149536438293
 30
0.0
 40
2.0
 41
0.0
 71
     4
 72
     1
  1
24.03.16
  7
CONVERTER_11
 73
     1
 44
1.32052821128451
  0
MTEXT
  5
CD
330
48
100
AcDbEntity
  8
1
 62
     2
100
AcDbMText
 10
31.74999548501614
 20
-258.8149536438294
 30
0.0
 40
2.0
 41
0.0
 71
     4
 72
     1
  1
12.09.18
  7
CONVERTER_11
 73
     1
 44
1.32052821128451
  0
MTEXT
  5
CE
330
48
100
AcDbEntity
  8
1
 62
     2
100
AcDbMText
 10
31.74999548501614
 20
-254.5149536438292
 30
0.0
 40
2.0
 41
0.0
 71
     4
 72
     1
  1
 
  7
CONVERTER_11
 73
     1
 44
1.32052821128451
  0
MTEXT
  5
CF
330
48
100
AcDbEntity
  8
1
 62
     2
100
AcDbMText
 10
31.74999548501614
 20
-250.2149536438292
 30
0.0
 40
2.0
 41
0.0
 71
     4
 72
     1
  1
 
  7
CONVERTER_11
 73
     1
 44
1.32052821128451
  0
MTEXT
  5
D0
330
48
100
AcDbEntity
  8
1
 62
     2
100
AcDbMText
 10
31.74999548501614
 20
-245.9149536438291
 30
0.0
 40
2.0
 41
0.0
 71
     4
 72
     1
  1
 
  7
CONVERTER_11
 73
     1
 44
1.32052821128451
  0
MTEXT
  5
D1
330
48
100
AcDbEntity
  8
1
 62
     2
100
AcDbMText
 10
31.74999548501614
 20
-241.614953643829
 30
0.0
 40
2.0
 41
0.0
 71
     4
 72
     1
  1
 
  7
CONVERTER_11
 73
     1
 44
1.32052821128451
  0
MTEXT
  5
D2
330
48
100
AcDbEntity
  8
1
 62
     2
100
AcDbMText
 10
31.74999548501614
 20
-237.314953643829
 30
0.0
 40
2.0
 41
0.0
 71
     4
 72
     1
  1
 
  7
CONVERTER_11
 73
     1
 44
1.32052821128451
  0
MTEXT
  5
D3
330
48
100
AcDbEntity
  8
1
 62
     2
100
AcDbMText
 10
31.74999548501614
 20
-233.014953643829
 30
0.0
 40
2.0
 41
0.0
 71
     4
 72
     1
  1
 
  7
CONVERTER_11
 73
     1
 44
1.32052821128451
  0
MTEXT
  5
D4
330
48
100
AcDbEntity
  8
1
 62
     2
100
AcDbMText
 10
45.74999548501614
 20
-233.014953643829
 30
0.0
 40
2.0
 41
0.0
 71
     4
 72
     1
  1
 
  7
CONVERTER_11
 73
     1
 44
1.32052821128451
  0
MTEXT
  5
D5
330
48
100
AcDbEntity
  8
1
 62
     2
100
AcDbMText
 10
45.74999548501614
 20
-237.314953643829
 30
0.0
 40
2.0
 41
0.0
 71
     4
 72
     1
  1
 
  7
CONVERTER_11
 73
     1
 44
1.32052821128451
  0
MTEXT
  5
D6
330
48
100
AcDbEntity
  8
1
 62
     2
100
AcDbMText
 10
45.74999548501614
 20
-241.614953643829
 30
0.0
 40
2.0
 41
0.0
 71
     4
 72
     1
  1
 
  7
CONVERTER_11
 73
     1
 44
1.32052821128451
  0
MTEXT
  5
D7
330
48
100
AcDbEntity
  8
1
 62
     2
100
AcDbMText
 10
45.74999548501614
 20
-245.9149536438291
 30
0.0
 40
2.0
 41
0.0
 71
     4
 72
     1
  1
 
  7
CONVERTER_11
 73
     1
 44
1.32052821128451
  0
MTEXT
  5
D8
330
48
100
AcDbEntity
  8
1
 62
     2
100
AcDbMText
 10
45.74999548501614
 20
-250.2149536438292
 30
0.0
 40
2.0
 41
0.0
 71
     4
 72
     1
  1
 
  7
CONVERTER_11
 73
     1
 44
1.32052821128451
  0
MTEXT
  5
D9
330
48
100
AcDbEntity
  8
1
 62
     2
100
AcDbMText
 10
45.74999548501614
 20
-254.5149536438292
 30
0.0
 40
2.0
 41
0.0
 71
     4
 72
     1
  1
 
  7
CONVERTER_11
 73
     1
 44
1.32052821128451
  0
MTEXT
  5
DA
330
48
100
AcDbEntity
  8
1
 62
     2
100
AcDbMText
 10
45.74999548501614
 20
-258.8149536438294
 30
0.0
 40
2.0
 41
0.0
 71
     4
 72
     1
  1
Natterer
  7
CONVERTER_11
 73
     1
 44
1.32052821128451
  0
MTEXT
  5
DB
330
48
100
AcDbEntity
  8
1
 62
     2
100
AcDbMText
 10
45.74999548501614
 20
-263.1149536438293
 30
0.0
 40
2.0
 41
0.0
 71
     4
 72
     1
  1
Natterer
  7
CONVERTER_11
 73
     1
 44
1.32052821128451
  0
MTEXT
  5
DC
330
48
100
AcDbEntity
  8
1
 62
     3
100
AcDbMText
 10
10.74999548501603
 20
-216.8649536438294
 30
0.0
 40
1.8
 41
0.0
 71
     1
 72
     1
  1
Kommissions-Nr.
  7
CONVERTER_13
 73
     1
 44
1.02040816326531
  0
MTEXT
  5
DD
330
48
100
AcDbEntity
  8
1
 62
     2
100
AcDbMText
 10
136.1938389575965
 20
-218.8649536438294
 30
0.0
 40
2.0
 41
0.0
 71
     5
 72
     1
  1
ANGEBOTSZEICHNUNG
  7
CONVERTER_12
 73
     1
 44
1.32052821128451
  0
MTEXT
  5
DE
330
48
100
AcDbEntity
  8
1
 62
     3
100
AcDbMText
 10
45.74999548501614
 20
-216.8649536438292
 30
0.0
 40
1.8
 41
0.0
 71
     1
 72
     1
  1
Oberfl\U+00e4che\PDIN ISO 1302
  7
CONVERTER_13
 73
     1
 44
1.02040816326531
  0
MTEXT
  5
DF
330
48
100
AcDbEntity
  8
1
 62
     7
100
AcDbMText
 10
112.7499954850161
 20
-259.8149536438294
 30
0.0
 40
4.0
 41
0.0
 71
     4
 72
     1
  1
62001
  7
CONVERTER_14
 73
     1
 44
1.14045618247299
  0
MTEXT
  5
E0
330
48
100
AcDbEntity
  8
1
 62
     7
100
AcDbMText
 10
138.7499954850161
 20
-259.8149536438294
 30
0.0
 40
4.0
 41
0.0
 71
     4
 72
     1
  1
209017
  7
CONVERTER_14
 73
     1
 44
1.14045618247299
  0
MTEXT
  5
E1
330
48
100
AcDbEntity
  8
1
 62
     3
100
AcDbMText
 10
136.7499954850161
 20
-253.3649536438294
 30
0.0
 40
1.8
 41
0.0
 71
     1
 72
     1
  1
Zeichnungs-Nr.
  7
CONVERTER_13
 73
     1
 44
1.68067226890756
  0
MTEXT
  5
E2
330
48
100
AcDbEntity
  8
1
 62
     3
100
AcDbMText
 10
65.74999548501614
 20
-226.3649536438294
 30
0.0
 40
1.8
 41
0.0
 71
     1
 72
     1
  1
Status
  7
CONVERTER_13
 73
     1
 44
1.02040816326531
  0
MTEXT
  5
E3
330
48
100
AcDbEntity
  8
1
 62
     2
100
AcDbMText
 10
91.79999548466515
 20
-227.8649536438294
 30
0.0
 40
2.0
 41
0.0
 71
     5
 72
     1
  1
freigegeben
  7
CONVERTER_11
 73
     1
 44
1.32052821128451
  0
MTEXT
  5
E4
330
48
100
AcDbEntity
  8
1
 62
     3
100
AcDbMText
 10
65.74999548501614
 20
-250.2149536438294
 30
0.0
 40
1.8
 41
0.0
 71
     4
 72
     1
  1
Schw.Fr.
  7
CONVERTER_13
 73
     1
 44
1.68067226890756
  0
MTEXT
  5
E5
330
48
100
AcDbEntity
  8
1
 62
     2
100
AcDbMText
 10
65.74999548501614
 20
-233.0149536438292
 30
0.0
 40
2.0
 41
0.0
 71
     4
 72
     1
  1
12.09.18
  7
CONVERTER_11
 73
     1
 44
1.32052821128451
  0
MTEXT
  5
E6
330
48
100
AcDbEntity
  8
1
 62
     3
100
AcDbMText
 10
163.7499954850167
 20
-216.8649536438294
 30
0.0
 40
1.8
 41
0.0
 71
     1
 72
     1
  1
Gewicht
  7
CONVERTER_13
 73
     1
 44
1.02040816326531
  0
MTEXT
  5
E7
330
48
100
AcDbEntity
  8
1
 62
     3
100
AcDbMText
 10
196.2499954850165
 20
-219.3649536438294
 30
0.0
 40
1.8
 41
0.0
 71
     4
 72
     1
  1
kg
  7
CONVERTER_13
 73
     1
 44
1.02040816326531
  0
MTEXT
  5
E8
330
48
100
AcDbEntity
  8
1
 62
     2
100
AcDbMText
 10
194.7499954850165
 20
-219.3649536438294
 30
0.0
 40
3.0
 41
0.0
 71
     6
 72
     1
  1
 
  7
CONVERTER_11
 73
     1
 44
1.32052821128451
  0
HATCH
  5
E9
330
48
100
AcDbEntity
  8
1
  6
Continuous
 62
     2
100
AcDbHatch
 10
0.0
 20
0.0
 30
0.0
210
0.0
220
0.0
230
1.0
  2
SOLID
 70
     1
 71
     1
 91
        1
 92
        1
 93
        3
 72
     1
 10
70.27547888461024
 20
-259.4904370434231
 11
70.27547888461024
 21
-261.75317874322
 72
     1
 10
70.27547888461024
 20
-261.75317874322
 11
68.01273718481303
 21
-261.7531787432201
 72
     1
 10
68.01273718481303
 20
-261.7531787432201
 11
70.27547888461024
 21
-259.4904370434231
 97
        3
330
58
330
57
330
56
 75
     0
 76
     1
 98
        1
 10
0.0
 20
0.0
  0
HATCH
  5
EA
330
48
100
AcDbEntity
  8
1
  6
Continuous
 62
     2
100
AcDbHatch
 10
0.0
 20
0.0
 30
0.0
210
0.0
220
0.0
230
1.0
  2
SOLID
 70
     1
 71
     1
 91
        1
 92
        1
 93
        9
 72
     1
 10
65.74999548501614
 20
-253.3649536438294
 11
65.74999548501614
 21
-261.75317874322
 72
     1
 10
65.74999548501614
 20
-261.75317874322
 11
68.01273718481303
 21
-261.7531787432201
 72
     1
 10
68.01273718481303
 20
-261.7531787432201
 11
65.74999548501614
 21
-259.4904370434231
 72
     1
 10
65.74999548501614
 20
-259.4904370434231
 11
71.87547888461015
 21
-253.3649536438292
 72
     1
 10
71.87547888461015
 20
-253.3649536438292
 11
78.00096228420415
 21
-259.4904370434231
 72
     1
 10
78.00096228420415
 20
-259.4904370434231
 11
75.73822058440714
 21
-261.7531787432201
 72
     1
 10
75.73822058440714
 20
-261.7531787432201
 11
78.00096228420415
 21
-261.75317874322
 72
     1
 10
78.00096228420415
 20
-261.75317874322
 11
78.00096228420415
 21
-253.3649536438292
 72
     1
 10
78.00096228420415
 20
-253.3649536438292
 11
65.74999548501614
 21
-253.3649536438294
 97
        9
330
61
330
60
330
5F
330
5E
330
5D
330
5C
330
5B
330
5A
330
59
 75
     0
 76
     1
 98
        1
 10
0.0
 20
0.0
  0
HATCH
  5
EB
330
48
100
AcDbEntity
  8
1
  6
Continuous
 62
     2
100
AcDbHatch
 10
0.0
 20
0.0
 30
0.0
210
0.0
220
0.0
230
1.0
  2
SOLID
 70
     1
 71
     1
 91
        1
 92
        1
 93
        3
 72
     1
 10
73.47547888461034
 20
-259.4904370434231
 11
73.47547888461034
 21
-261.75317874322
 72
     1
 10
73.47547888461034
 20
-261.75317874322
 11
75.73822058440714
 21
-261.7531787432201
 72
     1
 10
75.73822058440714
 20
-261.7531787432201
 11
73.47547888461034
 21
-259.4904370434231
 97
        3
330
64
330
63
330
62
 75
     0
 76
     1
 98
        1
 10
0.0
 20
0.0
  0
ENDBLK
  5
4A
330
48
100
AcDbEntity
  8
0
100
AcDbBlockEnd
  0
BLOCK
  5
4D
330
4B
100
AcDbEntity
  8
0
100
AcDbBlockBegin
  2
_tb_frame_A3_2000
 70
     0
 10
-0.24975322710216
 20
-126.3313004525993
 30
0.0
  3
_tb_frame_A3_2000
  1

  0
INSERT
  5
4C
330
4B
100
AcDbEntity
  8
0
100
AcDbBlockReference
  2
_schriftfeld_2000
 10
199.7499954850161
 20
-269.8649536438293
 30
0.0
  0
LINE
  5
EC
330
4B
100
AcDbEntity
  8
1
  6
Continuous
 62
     3
100
AcDbLine
 10
-40.87484746049637
 20
-269.8568407722009
 30
0.0
 11
-40.87484746049637
 21
-274.8560395689872
 31
0.0
  0
LINE
  5
ED
330
4B
100
AcDbEntity
  8
1
  6
Continuous
 62
     3
100
AcDbLine
 10
-88.99981604959905
 20
-269.8491285783492
 30
0.0
 11
-88.99981604959905
 21
-274.8483273751356
 31
0.0
  0
LINE
  5
EE
330
4B
100
AcDbEntity
  8
1
  6
Continuous
 62
     4
100
AcDbLine
 10
-190.2497532278042
 20
-274.864953643829
 30
0.0
 11
204.7499954857181
 21
-274.8641523764124
 31
0.0
  0
LINE
  5
EF
330
4B
100
AcDbEntity
  8
1
  6
Continuous
 62
     3
100
AcDbLine
 10
9.74999548501674
 20
-269.864953579626
 30
0.0
 11
-185.2497532278042
 21
-269.864953579626
 31
0.0
  0
LINE
  5
F0
330
4B
100
AcDbEntity
  8
1
  6
Continuous
 62
     3
100
AcDbLine
 10
-137.1247846387016
 20
-269.8414163844976
 30
0.0
 11
-137.1247846387016
 21
-274.8406151812839
 31
0.0
  0
LINE
  5
F1
330
4B
100
AcDbEntity
  8
1
  6
Continuous
 62
     3
100
AcDbLine
 10
-185.2497532278042
 20
-269.864953579626
 30
0.0
 11
-185.2497532278042
 21
7.16789827998434
 31
0.0
  0
LINE
  5
F2
330
4B
100
AcDbEntity
  8
1
  6
Continuous
 62
     3
100
AcDbLine
 10
-190.2497532278042
 20
-223.6529029553308
 30
0.0
 11
-185.2497532278042
 21
-223.6529029553308
 31
0.0
  0
LINE
  5
F3
330
4B
100
AcDbEntity
  8
1
  6
Continuous
 62
     3
100
AcDbLine
 10
151.6250268959142
 20
12.1678982799844
 30
0.0
 11
151.6250268959142
 21
7.1678982799844
 31
0.0
  0
LINE
  5
F4
330
4B
100
AcDbEntity
  8
1
  6
Continuous
 62
     3
100
AcDbLine
 10
103.5000583068115
 20
12.1678982799844
 30
0.0
 11
103.5000583068115
 21
7.1678982799844
 31
0.0
  0
LINE
  5
F5
330
4B
100
AcDbEntity
  8
1
  6
Continuous
 62
     4
100
AcDbLine
 10
204.7502467721958
 20
12.1678982799844
 30
0.0
 11
-190.2497532278042
 21
12.16789827998434
 31
0.0
  0
LINE
  5
F6
330
4B
100
AcDbEntity
  8
1
  6
Continuous
 62
     3
100
AcDbLine
 10
55.37508971770885
 20
12.16789827998434
 30
0.0
 11
55.37508971770885
 21
7.1678982799844
 31
0.0
  0
LINE
  5
F7
330
4B
100
AcDbEntity
  8
1
  6
Continuous
 62
     3
100
AcDbLine
 10
7.25012112860625
 20
12.16789827998434
 30
0.0
 11
7.25012112860625
 21
7.1678982799844
 31
0.0
  0
LINE
  5
F8
330
4B
100
AcDbEntity
  8
1
  6
Continuous
 62
     3
100
AcDbLine
 10
-40.87484746049645
 20
12.16789827998434
 30
0.0
 11
-40.87484746049645
 21
7.16789827998434
 31
0.0
  0
LINE
  5
F9
330
4B
100
AcDbEntity
  8
1
  6
Continuous
 62
     3
100
AcDbLine
 10
-88.99981604959905
 20
12.16789827998434
 30
0.0
 11
-88.99981604959905
 21
7.16789827998434
 31
0.0
  0
LINE
  5
FA
330
4B
100
AcDbEntity
  8
1
  6
Continuous
 62
     3
100
AcDbLine
 10
-185.2497532278042
 20
7.16789827998434
 30
0.0
 11
199.7499954850168
 21
7.1678982799844
 31
0.0
  0
LINE
  5
FB
330
4B
100
AcDbEntity
  8
1
  6
Continuous
 62
     3
100
AcDbLine
 10
-137.1247846387016
 20
12.16789827998434
 30
0.0
 11
-137.1247846387016
 21
7.16789827998434
 31
0.0
  0
LINE
  5
FC
330
4B
100
AcDbEntity
  8
1
  6
Continuous
 62
     3
100
AcDbLine
 10
199.7499954850168
 20
-177.4929029553308
 30
0.0
 11
204.7500165704319
 21
-177.4929029553308
 31
0.0
  0
LINE
  5
FD
330
4B
100
AcDbEntity
  8
1
  6
Continuous
 62
     3
100
AcDbLine
 10
199.7499954850168
 20
-131.3329029553308
 30
0.0
 11
204.750072597367
 21
-131.3329029553308
 31
0.0
  0
LINE
  5
FE
330
4B
100
AcDbEntity
  8
1
  6
Continuous
 62
     3
100
AcDbLine
 10
199.7499954850168
 20
-85.17290295533078
 30
0.0
 11
204.7501286243023
 21
-85.17290295533078
 31
0.0
  0
LINE
  5
FF
330
4B
100
AcDbEntity
  8
1
  6
Continuous
 62
     3
100
AcDbLine
 10
199.7499954850168
 20
7.1678982799844
 30
0.0
 11
199.7499954850166
 21
-215.8649536438292
 31
0.0
  0
LINE
  5
100
330
4B
100
AcDbEntity
  8
1
  6
Continuous
 62
     3
100
AcDbLine
 10
199.7499954850168
 20
-39.01290295533079
 30
0.0
 11
204.7501846512375
 21
-39.01290295533079
 31
0.0
  0
LINE
  5
101
330
4B
100
AcDbEntity
  8
1
  6
Continuous
 62
     2
100
AcDbLine
 10
-199.2497532278042
 20
-131.3329029553308
 30
0.0
 11
-190.2497532278042
 21
-131.3329029553308
 31
0.0
  0
LINE
  5
102
330
4B
100
AcDbEntity
  8
1
  6
Continuous
 62
     3
100
AcDbLine
 10
-190.2497532278042
 20
-131.3329029553308
 30
0.0
 11
-185.2497532278042
 21
-131.3329029553308
 31
0.0
  0
LINE
  5
103
330
4B
100
AcDbEntity
  8
1
  6
Continuous
 62
     3
100
AcDbLine
 10
-190.2497532278042
 20
-85.17290295533078
 30
0.0
 11
-185.2497532278042
 21
-85.17290295533078
 31
0.0
  0
LINE
  5
104
330
4B
100
AcDbEntity
  8
1
  6
Continuous
 62
     4
100
AcDbLine
 10
-190.2497532278042
 20
12.16789827998434
 30
0.0
 11
-190.2497532278042
 21
-274.864953643829
 31
0.0
  0
LINE
  5
105
330
4B
100
AcDbEntity
  8
1
  6
Continuous
 62
     3
100
AcDbLine
 10
-190.2497532278042
 20
-39.01290295533079
 30
0.0
 11
-185.2497532278042
 21
-39.01290295533079
 31
0.0
  0
LINE
  5
106
330
4B
100
AcDbEntity
  8
1
  6
Continuous
 62
     3
100
AcDbLine
 10
-190.2497532278042
 20
-177.4929029553308
 30
0.0
 11
-185.2497532278042
 21
-177.4929029553308
 31
0.0
  0
LINE
  5
107
330
4B
100
AcDbEntity
  8
1
  6
Continuous
 62
     3
100
AcDbLine
 10
199.7499954850168
 20
-223.6529029553308
 30
0.0
 11
204.7499954850168
 21
-223.6529029553308
 31
0.0
  0
LINE
  5
108
330
4B
100
AcDbEntity
  8
1
  6
Continuous
 62
     2
100
AcDbLine
 10
21.75024677219574
 20
-269.8968426700539
 30
0.0
 11
21.75024677219574
 21
-274.8639907462401
 31
0.0
  0
LINE
  5
109
330
4B
100
AcDbEntity
  8
1
  6
Continuous
 62
     4
100
AcDbLine
 10
204.7502467721958
 20
12.1678982799844
 30
0.0
 11
204.7499954850166
 21
-274.864953643829
 31
0.0
  0
MTEXT
  5
10A
330
4B
100
AcDbEntity
  8
1
 62
     2
100
AcDbMText
 10
81.74999548571864
 20
-267.5805783383194
 30
0.0
 40
2.0
 41
0.0
 71
     4
 72
     1
  1
 
  7
CONVERTER_11
 73
     1
 44
1.32052821128451
  0
MTEXT
  5
10B
330
4B
100
AcDbEntity
  8
1
 62
     2
100
AcDbMText
 10
126.7499954857186
 20
-267.5805783383194
 30
0.0
 40
2.0
 41
0.0
 71
     4
 72
     1
  1
 
  7
CONVERTER_11
 73
     1
 44
1.32052821128451
  0
MTEXT
  5
10C
330
4B
100
AcDbEntity
  8
1
 62
     2
100
AcDbMText
 10
171.7499954857186
 20
-267.5805783383194
 30
0.0
 40
2.0
 41
0.0
 71
     4
 72
     1
  1
 
  7
CONVERTER_11
 73
     1
 44
1.32052821128451
  0
MTEXT
  5
10D
330
4B
100
AcDbEntity
  8
1
 62
     3
100
AcDbMText
 10
-187.8676562544955
 20
-246.7433035729884
 30
0.0
 40
2.0
 41
0.0
 71
     5
 72
     1
  1
A
  7
CONVERTER_12
 73
     1
 44
1.32052821128451
  0
MTEXT
  5
10E
330
4B
100
AcDbEntity
  8
1
 62
     3
100
AcDbMText
 10
-187.7724674587863
 20
-200.5729029553308
 30
0.0
 40
2.0
 41
0.0
 71
     5
 72
     1
  1
B
  7
CONVERTER_12
 73
     1
 44
1.32052821128451
  0
MTEXT
  5
10F
330
4B
100
AcDbEntity
  8
1
 62
     3
100
AcDbMText
 10
-16.81236316594496
 20
-272.390839159181
 30
0.0
 40
2.0
 41
0.0
 71
     5
 72
     1
  1
5
  7
CONVERTER_12
 73
     1
 44
1.32052821128451
  0
MTEXT
  5
110
330
4B
100
AcDbEntity
  8
1
 62
     3
100
AcDbMText
 10
-64.93733175504778
 20
-272.3106066743241
 30
0.0
 40
2.0
 41
0.0
 71
     5
 72
     1
  1
6
  7
CONVERTER_12
 73
     1
 44
1.32052821128451
  0
MTEXT
  5
111
330
4B
100
AcDbEntity
  8
1
 62
     3
100
AcDbMText
 10
-113.0623003441504
 20
-272.4053974729655
 30
0.0
 40
2.0
 41
0.0
 71
     5
 72
     1
  1
7
  7
CONVERTER_12
 73
     1
 44
1.32052821128451
  0
MTEXT
  5
112
330
4B
100
AcDbEntity
  8
1
 62
     3
100
AcDbMText
 10
-161.187268933253
 20
-272.4053974729655
 30
0.0
 40
2.0
 41
0.0
 71
     5
 72
     1
  1
8
  7
CONVERTER_12
 73
     1
 44
1.32052821128451
  0
MTEXT
  5
113
330
4B
100
AcDbEntity
  8
1
 62
     3
100
AcDbMText
 10
202.2789633019307
 20
-15.92250233767317
 30
0.0
 40
2.0
 41
0.0
 71
     5
 72
     1
  1
F
  7
CONVERTER_12
 73
     1
 44
1.32052821128451
  0
MTEXT
  5
114
330
4B
100
AcDbEntity
  8
1
 62
     3
100
AcDbMText
 10
202.1892812960561
 20
-62.09290295533077
 30
0.0
 40
2.0
 41
0.0
 71
     5
 72
     1
  1
E
  7
CONVERTER_12
 73
     1
 44
1.32052821128451
  0
MTEXT
  5
115
330
4B
100
AcDbEntity
  8
1
 62
     3
100
AcDbMText
 10
202.2781766176687
 20
-108.2529029553308
 30
0.0
 40
2.0
 41
0.0
 71
     5
 72
     1
  1
D
  7
CONVERTER_12
 73
     1
 44
1.32052821128451
  0
MTEXT
  5
116
330
4B
100
AcDbEntity
  8
1
 62
     3
100
AcDbMText
 10
202.0972392373954
 20
-154.4129029553308
 30
0.0
 40
2.0
 41
0.0
 71
     5
 72
     1
  1
C
  7
CONVERTER_12
 73
     1
 44
1.32052821128451
  0
MTEXT
  5
117
330
4B
100
AcDbEntity
  8
1
 62
     3
100
AcDbMText
 10
-187.8460224372888
 20
-154.4129029553308
 30
0.0
 40
2.0
 41
0.0
 71
     5
 72
     1
  1
C
  7
CONVERTER_12
 73
     1
 44
1.32052821128451
  0
MTEXT
  5
118
330
4B
100
AcDbEntity
  8
1
 62
     3
100
AcDbMText
 10
-187.7539803786281
 20
-108.2529029553308
 30
0.0
 40
2.0
 41
0.0
 71
     5
 72
     1
  1
D
  7
CONVERTER_12
 73
     1
 44
1.32052821128451
  0
MTEXT
  5
119
330
4B
100
AcDbEntity
  8
1
 62
     3
100
AcDbMText
 10
-188.0218463698587
 20
-62.09290295533077
 30
0.0
 40
2.0
 41
0.0
 71
     5
 72
     1
  1
E
  7
CONVERTER_12
 73
     1
 44
1.32052821128451
  0
MTEXT
  5
11A
330
4B
100
AcDbEntity
  8
1
 62
     3
100
AcDbMText
 10
-187.7764008800968
 20
-15.92250233767317
 30
0.0
 40
2.0
 41
0.0
 71
     5
 72
     1
  1
F
  7
CONVERTER_12
 73
     1
 44
1.32052821128451
  0
MTEXT
  5
11B
330
4B
100
AcDbEntity
  8
1
 62
     3
100
AcDbMText
 10
175.6875111904654
 20
9.84601389218301
 30
0.0
 40
2.0
 41
0.0
 71
     5
 72
     1
  1
1
  7
CONVERTER_12
 73
     1
 44
1.32052821128451
  0
MTEXT
  5
11C
330
4B
100
AcDbEntity
  8
1
 62
     3
100
AcDbMText
 10
127.5625426013628
 20
9.69460742882382
 30
0.0
 40
2.0
 41
0.0
 71
     5
 72
     1
  1
2
  7
CONVERTER_12
 73
     1
 44
1.32052821128451
  0
MTEXT
  5
11D
330
4B
100
AcDbEntity
  8
1
 62
     3
100
AcDbMText
 10
79.43757401226014
 20
9.69493094690802
 30
0.0
 40
2.0
 41
0.0
 71
     5
 72
     1
  1
3
  7
CONVERTER_12
 73
     1
 44
1.32052821128451
  0
MTEXT
  5
11E
330
4B
100
AcDbEntity
  8
1
 62
     3
100
AcDbMText
 10
31.31260542315755
 20
9.62181585990123
 30
0.0
 40
2.0
 41
0.0
 71
     5
 72
     1
  1
4
  7
CONVERTER_12
 73
     1
 44
1.32052821128451
  0
MTEXT
  5
11F
330
4B
100
AcDbEntity
  8
1
 62
     3
100
AcDbMText
 10
-16.81236316594504
 20
9.69201928415112
 30
0.0
 40
2.0
 41
0.0
 71
     5
 72
     1
  1
5
  7
CONVERTER_12
 73
     1
 44
1.32052821128451
  0
MTEXT
  5
120
330
4B
100
AcDbEntity
  8
1
 62
     3
100
AcDbMText
 10
-64.93733175504778
 20
9.62343345032173
 30
0.0
 40
2.0
 41
0.0
 71
     5
 72
     1
  1
6
  7
CONVERTER_12
 73
     1
 44
1.32052821128451
  0
MTEXT
  5
121
330
4B
100
AcDbEntity
  8
1
 62
     3
100
AcDbMText
 10
-113.0623003441504
 20
9.6299038120037
 30
0.0
 40
2.0
 41
0.0
 71
     5
 72
     1
  1
7
  7
CONVERTER_12
 73
     1
 44
1.32052821128451
  0
MTEXT
  5
122
330
4B
100
AcDbEntity
  8
1
 62
     3
100
AcDbMText
 10
-161.187268933253
 20
9.6299038120037
 30
0.0
 40
2.0
 41
0.0
 71
     5
 72
     1
  1
8
  7
CONVERTER_12
 73
     1
 44
1.32052821128451
  0
MTEXT
  5
123
330
4B
100
AcDbEntity
  8
1
 62
     3
100
AcDbMText
 10
202.228222167028
 20
-200.5729029553308
 30
0.0
 40
2.0
 41
0.0
 71
     5
 72
     1
  1
B
  7
CONVERTER_12
 73
     1
 44
1.32052821128451
  0
MTEXT
  5
124
330
4B
100
AcDbEntity
  8
1
 62
     3
100
AcDbMText
 10
201.9308555159702
 20
-246.7433035729884
 30
0.0
 40
2.0
 41
0.0
 71
     5
 72
     1
  1
A
  7
CONVERTER_12
 73
     1
 44
1.32052821128451
  0
ENDBLK
  5
4E
330
4B
100
AcDbEntity
  8
0
100
AcDbBlockEnd
  0
BLOCK
  5
50
330
4F
100
AcDbEntity
  8
0
100
AcDbBlockBegin
  2
_TD_WA50_de_gb_fr
 70
     0
 10
16.43098577653137
 20
-25.54210115343454
 30
0.0
  3
_TD_WA50_de_gb_fr
  1

  0
LINE
  5
125
330
4F
100
AcDbEntity
  8
1
  6
Continuous
 62
     7
100
AcDbLine
 10
129.7999237072115
 20
-142.6417620502299
 30
0.0
 11
129.7999237072115
 21
-254.5539761433296
 31
0.0
  0
LINE
  5
126
330
4F
100
AcDbEntity
  8
1
  6
Continuous
 62
     2
100
AcDbLine
 10
95.29579864028887
 20
-247.2519722237441
 30
0.0
 11
129.7999237072115
 21
-247.2519722237435
 31
0.0
  0
LINE
  5
127
330
4F
100
AcDbEntity
  8
1
  6
Continuous
 62
     2
100
AcDbLine
 10
80.32729709629285
 20
-247.2519722237441
 30
0.0
 11
95.29579864028887
 21
-247.2519722237441
 31
0.0
  0
LINE
  5
128
330
4F
100
AcDbEntity
  8
1
  6
Continuous
 62
     2
100
AcDbLine
 10
-51.55173073365052
 20
-247.2519722237435
 30
0.0
 11
80.32729709629285
 21
-247.2519722237441
 31
0.0
  0
LINE
  5
129
330
4F
100
AcDbEntity
  8
1
  6
Continuous
 62
     3
100
AcDbLine
 10
95.29579864028887
 20
-142.6417620502299
 30
0.0
 11
95.29579864028887
 21
-254.5539761433296
 31
0.0
  0
LINE
  5
12A
330
4F
100
AcDbEntity
  8
1
  6
Continuous
 62
     2
100
AcDbLine
 10
-51.55173073365052
 20
-205.6746539242859
 30
0.0
 11
129.7999237072115
 21
-205.6746539242859
 31
0.0
  0
LINE
  5
12B
330
4F
100
AcDbEntity
  8
1
  6
Continuous
 62
     2
100
AcDbLine
 10
-51.55173073365052
 20
-240.4499683041597
 30
0.0
 11
80.32729709629285
 21
-240.4499683041597
 31
0.0
  0
LINE
  5
12C
330
4F
100
AcDbEntity
  8
1
  6
Continuous
 62
     3
100
AcDbLine
 10
-51.55173073365052
 20
-170.5557031345025
 30
0.0
 11
129.7999237072115
 21
-170.5557031345025
 31
0.0
  0
LINE
  5
12D
330
4F
100
AcDbEntity
  8
1
  6
Continuous
 62
     3
100
AcDbLine
 10
129.7999237072115
 20
-177.5230018360411
 30
0.0
 11
-51.55173073365052
 21
-177.5230018360411
 31
0.0
  0
LINE
  5
12E
330
4F
100
AcDbEntity
  8
1
  6
Continuous
 62
     2
100
AcDbLine
 10
80.32729709629285
 20
-142.6417620502299
 30
0.0
 11
80.32729709629285
 21
-254.5539761433296
 31
0.0
  0
LINE
  5
12F
330
4F
100
AcDbEntity
  8
1
  6
Continuous
 62
     7
100
AcDbLine
 10
-51.55173073365052
 20
-254.5539761433296
 30
0.0
 11
-51.55173073365052
 21
-131.4328020502292
 31
0.0
  0
LINE
  5
130
330
4F
100
AcDbEntity
  8
1
  6
Continuous
 62
     7
100
AcDbLine
 10
129.7999237072115
 20
-254.5539761433296
 30
0.0
 11
95.29579864028887
 21
-254.5539761433296
 31
0.0
  0
LINE
  5
131
330
4F
100
AcDbEntity
  8
1
  6
Continuous
 62
     7
100
AcDbLine
 10
129.7999237072115
 20
-131.4328020502292
 30
0.0
 11
129.7999237072115
 21
-142.6417620502299
 31
0.0
  0
LINE
  5
132
330
4F
100
AcDbEntity
  8
1
  6
Continuous
 62
     7
100
AcDbLine
 10
-51.55173073365052
 20
-131.4328020502292
 30
0.0
 11
129.7999237072115
 21
-131.4328020502292
 31
0.0
  0
LINE
  5
133
330
4F
100
AcDbEntity
  8
1
  6
Continuous
 62
     3
100
AcDbLine
 10
-35.94948184367183
 20
-254.5539761433296
 30
0.0
 11
-35.94948184367183
 21
-178.3230018360411
 31
0.0
  0
LINE
  5
134
330
4F
100
AcDbEntity
  8
1
  6
Continuous
 62
     3
100
AcDbLine
 10
-35.94948184367183
 20
-171.2557031345025
 30
0.0
 11
-35.94948184367183
 21
-142.6417620502299
 31
0.0
  0
LINE
  5
135
330
4F
100
AcDbEntity
  8
1
  6
Continuous
 62
     2
100
AcDbLine
 10
129.7999237072115
 20
-142.6417620502299
 30
0.0
 11
-51.55173073365052
 21
-142.6417620502299
 31
0.0
  0
LINE
  5
136
330
4F
100
AcDbEntity
  8
1
  6
Continuous
 62
     2
100
AcDbLine
 10
95.29579864028887
 20
-240.4499683041597
 30
0.0
 11
129.7999237072112
 21
-240.4499683041597
 31
0.0
  0
LINE
  5
137
330
4F
100
AcDbEntity
  8
1
  6
Continuous
 62
     2
100
AcDbLine
 10
80.32729709629285
 20
-240.4499683041597
 30
0.0
 11
95.29579864028887
 21
-240.4499683041597
 31
0.0
  0
LINE
  5
138
330
4F
100
AcDbEntity
  8
1
  6
Continuous
 62
     2
100
AcDbLine
 10
95.29579864028887
 20
-233.9479643845764
 30
0.0
 11
129.7999237072112
 21
-233.9479643845764
 31
0.0
  0
LINE
  5
139
330
4F
100
AcDbEntity
  8
1
  6
Continuous
 62
     2
100
AcDbLine
 10
80.32729709629285
 20
-233.9479643845764
 30
0.0
 11
95.29579864028887
 21
-233.9479643845764
 31
0.0
  0
LINE
  5
13A
330
4F
100
AcDbEntity
  8
1
  6
Continuous
 62
     2
100
AcDbLine
 10
-51.55173073365052
 20
-233.9479643845764
 30
0.0
 11
80.32729709629285
 21
-233.9479643845764
 31
0.0
  0
LINE
  5
13B
330
4F
100
AcDbEntity
  8
1
  6
Continuous
 62
     7
100
AcDbLine
 10
-35.94948184367183
 20
-254.5539761433296
 30
0.0
 11
-51.55173073365052
 21
-254.5539761433296
 31
0.0
  0
LINE
  5
13C
330
4F
100
AcDbEntity
  8
1
  6
Continuous
 62
     7
100
AcDbLine
 10
80.32729709629285
 20
-254.5539761433296
 30
0.0
 11
-35.94948184367183
 21
-254.5539761433296
 31
0.0
  0
LINE
  5
13D
330
4F
100
AcDbEntity
  8
1
  6
Continuous
 62
     7
100
AcDbLine
 10
95.29579864028887
 20
-254.5539761433296
 30
0.0
 11
80.32729709629285
 21
-254.5539761433296
 31
0.0
  0
MTEXT
  5
13F
330
4F
100
AcDbEntity
  8
1
 62
     3
100
AcDbMText
 10
-37.9508564267191
 20
-205.7104100971081
 30
0.0
 40
2.642112
 41
0.0
 71
     7
 72
     1
  1
Oberste Lage\PLast rope position\PSur la dern. couche
  7
CONVERTER_16
 11
0.0
 21
1.0
 31
0.0
 73
     1
 44
0.96038415366146
  0
MTEXT
  5
140
330
4F
100
AcDbEntity
  8
1
 62
     3
100
AcDbMText
 10
-37.9508564267191
 20
-169.5908993073258
 30
0.0
 40
2.642112
 41
0.0
 71
     7
 72
     1
  1
1. Seillage\P1st rope position\PSur la 1\U+00e8re couche
  7
CONVERTER_16
 11
0.0
 21
1.0
 31
0.0
 73
     1
 44
0.96038415366146
  0
MTEXT
  5
142
330
4F
100
AcDbEntity
  8
1
 62
     7
100
AcDbMText
 10
-50.13018387891378
 20
-139.5835595491765
 30
0.0
 40
4.90392000000001
 41
0.0
 71
     7
 72
     1
  1
Typ(e) WA50 Technische Daten/Technical data/Caract\U+00e9ristiques techniques
  7
CONVERTER_17
 73
     1
 44
1.32052821128451
  0
MTEXT
  5
144
330
4F
100
AcDbEntity
  8
1
 62
     2
100
AcDbMText
 10
82.7061925228017
 20
-143.7135989117671
 30
0.0
 40
3.50280000000001
 41
0.0
 71
     1
 72
     1
  1
kN\Pmm\P \Pm\P \PkN\Pmm\P \Pm \Pmm\PkN\Ph\P \PN\P \Pkg
  7
CONVERTER_18
 73
     1
 44
1.20048019207683
  0
MTEXT
  5
146
330
4F
100
AcDbEntity
  8
1
 62
     2
100
AcDbMText
 10
-40.4458745079607
 20
-143.7135989117671
 30
0.0
 40
3.50280000000001
 41
0.0
 71
     1
 72
     1
  3
   Seilzugkraft / Capacity / Charge autoris\U+00e9e\P   Hub pro Kurbelumdrehung / Lift per crank turn / \P   Course par tour de manivelle\P   Seilaufnahme / Rope capacity / Cap. d'enroulement du c\U+00e2ble\P   maximale Lagenzahl / Rope positions / 
  3
Couches d'enroulement\P   Seilzugkraft / Capacity / Charge autoris\U+00e9e\P   Hub pro Kurbelumdrehung / Lift per crank turn / \P   Course par tour de manivelle\P   Seilaufnahme / Rope capacity / Cap. d'enroulement du c\U+00e2ble\P   Seildurchmesser
  3
 / Rope diameter / Diam\U+00e8tre de c\U+00e2ble\P   Mindestbruchkraft / Minimum Breaking Load /Force de rupture\P   Volllaststunden / Full charge lifetime / \P   Dur\U+00e9e de vie en pleine charge\P   Kurbeldruck / Crank force / Effort manivelle\P
  1
   \U+00dcbersetzung / Gear ratio / Rapport\P   Gewicht / Weight / Poids
  7
CONVERTER_19
 73
     1
 44
1.20048019207683
  0
MTEXT
  5
147
330
4F
100
AcDbEntity
  8
1
 62
     2
100
AcDbMText
 10
98.32231715512165
 20
-143.6952704544693
 30
0.0
 40
3.50280000000001
 41
0.0
 71
     1
 72
     1
  1
  0.5   \P 96        \P        \P  0,5+0,3(3SW)\P 10         \P  0,23       \P207       \P       \P11,7+0,3(3SW)\P  2  \P  1.5 \P 50 \P  \P 80\P  1:1\P  1,0
  7
CONVERTER_18
 73
     1
 44
1.20048019207683
  0
ENDBLK
  5
51
330
4F
100
AcDbEntity
  8
0
100
AcDbBlockEnd
  0
BLOCK
  5
1C4
330
1BB
100
AcDbEntity
  8
0
100
AcDbBlockBegin
  2
*D4
 70
     1
 10
0.0
 20
0.0
 30
0.0
  3
*D4
  1

  0
LINE
  5
1BC
330
1BB
100
AcDbEntity
  8
1
  6
Continuous
 62
     3
100
AcDbLine
 10
186.936842105263
 20
-21.87062778388539
 30
0.0
 11
172.936842105263
 21
-21.87062778388539
 31
0.0
  0
LINE
  5
1BD
330
1BB
100
AcDbEntity
  8
1
  6
Continuous
 62
     3
100
AcDbLine
 10
172.936842105263
 20
-21.87062778388539
 30
0.0
 11
153.936842105263
 21
-21.87062778388539
 31
0.0
  0
LINE
  5
1BE
330
1BB
100
AcDbEntity
  8
1
  6
Continuous
 62
     3
100
AcDbLine
 10
153.936842105263
 20
-21.87062778388539
 30
0.0
 11
139.936842105263
 21
-21.87062778388539
 31
0.0
  0
LINE
  5
1BF
330
1BB
100
AcDbEntity
  8
1
  6
Continuous
 62
     3
100
AcDbLine
 10
172.936842105263
 20
-83.0
 30
0.0
 11
172.936842105263
 21
-17.87062778388539
 31
0.0
  0
LINE
  5
1C0
330
1BB
100
AcDbEntity
  8
1
  6
Continuous
 62
     3
100
AcDbLine
 10
153.936842105263
 20
-78.0
 30
0.0
 11
153.936842105263
 21
-17.87062778388539
 31
0.0
  0
SOLID
  5
1C1
330
1BB
100
AcDbEntity
  8
1
 62
     3
100
AcDbTrace
 10
179.936842105263
 20
-20.94906030077362
 30
0.0
 11
179.936842105263
 21
-22.79219526699717
 31
0.0
 12
172.936842105263
 22
-21.87062778388539
 32
0.0
 13
172.936842105263
 23
-21.87062778388539
 33
0.0
  0
SOLID
  5
1C2
330
1BB
100
AcDbEntity
  8
1
 62
     3
100
AcDbTrace
 10
146.936842105263
 20
-22.79219526699716
 30
0.0
 11
146.936842105263
 21
-20.94906030077362
 31
0.0
 12
153.936842105263
 22
-21.87062778388539
 32
0.0
 13
153.936842105263
 23
-21.87062778388539
 33
0.0
  0
MTEXT
  5
1C3
330
1BB
100
AcDbEntity
  8
1
 62
     2
100
AcDbMText
 10
159.236842105263
 20
-18.67062778388539
 30
0.0
 40
7.0
 41
0.0
 71
     7
 72
     1
  1
19
  7
CONVERTER_12
 11
0.9999999999970619
 21
2.424068405545306E-6
 31
0.0
 73
     1
 44
0.60024009603842
  0
ENDBLK
  5
1C5
330
1BB
100
AcDbEntity
  8
0
100
AcDbBlockEnd
  0
BLOCK
  5
1D1
330
1C8
100
AcDbEntity
  8
0
100
AcDbBlockBegin
  2
*D5
 70
     1
 10
0.0
 20
0.0
 30
0.0
  3
*D5
  1

  0
LINE
  5
1C9
330
1C8
100
AcDbEntity
  8
1
  6
Continuous
 62
     3
100
AcDbLine
 10
93.936842105263
 20
-21.87062778388539
 30
0.0
 11
107.936842105263
 21
-21.87062778388539
 31
0.0
  0
LINE
  5
1CA
330
1C8
100
AcDbEntity
  8
1
  6
Continuous
 62
     3
100
AcDbLine
 10
107.936842105263
 20
-21.87062778388539
 30
0.0
 11
123.936842105263
 21
-21.87062778388539
 31
0.0
  0
LINE
  5
1CB
330
1C8
100
AcDbEntity
  8
1
  6
Continuous
 62
     3
100
AcDbLine
 10
123.936842105263
 20
-21.87062778388539
 30
0.0
 11
137.936842105263
 21
-21.87062778388539
 31
0.0
  0
LINE
  5
1CC
330
1C8
100
AcDbEntity
  8
1
  6
Continuous
 62
     3
100
AcDbLine
 10
107.936842105263
 20
-56.75
 30
0.0
 11
107.936842105263
 21
-17.87062778388539
 31
0.0
  0
LINE
  5
1CD
330
1C8
100
AcDbEntity
  8
1
  6
Continuous
 62
     3
100
AcDbLine
 10
123.936842105263
 20
-78.0
 30
0.0
 11
123.936842105263
 21
-17.87062778388539
 31
0.0
  0
SOLID
  5
1CE
330
1C8
100
AcDbEntity
  8
1
 62
     3
100
AcDbTrace
 10
100.936842105263
 20
-22.79219526699716
 30
0.0
 11
100.936842105263
 21
-20.94906030077362
 31
0.0
 12
107.936842105263
 22
-21.87062778388539
 32
0.0
 13
107.936842105263
 23
-21.87062778388539
 33
0.0
  0
SOLID
  5
1CF
330
1C8
100
AcDbEntity
  8
1
 62
     3
100
AcDbTrace
 10
130.936842105263
 20
-20.94906030077362
 30
0.0
 11
130.936842105263
 21
-22.79219526699717
 31
0.0
 12
123.936842105263
 22
-21.87062778388539
 32
0.0
 13
123.936842105263
 23
-21.87062778388539
 33
0.0
  0
MTEXT
  5
1D0
330
1C8
100
AcDbEntity
  8
1
 62
     2
100
AcDbMText
 10
111.736842105263
 20
-18.67062778388539
 30
0.0
 40
7.0
 41
0.0
 71
     7
 72
     1
  1
16
  7
CONVERTER_12
 11
0.9999999999970619
 21
2.424068405545306E-6
 31
0.0
 73
     1
 44
0.60024009603842
  0
ENDBLK
  5
1D2
330
1C8
100
AcDbEntity
  8
0
100
AcDbBlockEnd
  0
BLOCK
  5
1DC
330
1D5
100
AcDbEntity
  8
0
100
AcDbBlockBegin
  2
*D6
 70
     1
 10
0.0
 20
0.0
 30
0.0
  3
*D6
  1

  0
LINE
  5
1D6
330
1D5
100
AcDbEntity
  8
1
  6
Continuous
 62
     3
100
AcDbLine
 10
123.936842105263
 20
-21.87062778388539
 30
0.0
 11
153.936842105263
 21
-21.87062778388539
 31
0.0
  0
LINE
  5
1D7
330
1D5
100
AcDbEntity
  8
1
  6
Continuous
 62
     3
100
AcDbLine
 10
123.936842105263
 20
-78.0
 30
0.0
 11
123.936842105263
 21
-17.87062778388539
 31
0.0
  0
LINE
  5
1D8
330
1D5
100
AcDbEntity
  8
1
  6
Continuous
 62
     3
100
AcDbLine
 10
153.936842105263
 20
-78.0
 30
0.0
 11
153.936842105263
 21
-17.87062778388539
 31
0.0
  0
SOLID
  5
1D9
330
1D5
100
AcDbEntity
  8
1
 62
     3
100
AcDbTrace
 10
130.936842105263
 20
-20.94906030077362
 30
0.0
 11
130.936842105263
 21
-22.79219526699717
 31
0.0
 12
123.936842105263
 22
-21.87062778388539
 32
0.0
 13
123.936842105263
 23
-21.87062778388539
 33
0.0
  0
SOLID
  5
1DA
330
1D5
100
AcDbEntity
  8
1
 62
     3
100
AcDbTrace
 10
146.936842105263
 20
-22.79219526699716
 30
0.0
 11
146.936842105263
 21
-20.94906030077362
 31
0.0
 12
153.936842105263
 22
-21.87062778388539
 32
0.0
 13
153.936842105263
 23
-21.87062778388539
 33
0.0
  0
MTEXT
  5
1DB
330
1D5
100
AcDbEntity
  8
1
 62
     2
100
AcDbMText
 10
133.686842105263
 20
-18.67062778388539
 30
0.0
 40
7.0
 41
0.0
 71
     7
 72
     1
  1
30
  7
CONVERTER_12
 11
0.9999999999970619
 21
2.424068405545306E-6
 31
0.0
 73
     1
 44
0.60024009603842
  0
ENDBLK
  5
1DD
330
1D5
100
AcDbEntity
  8
0
100
AcDbBlockEnd
  0
BLOCK
  5
1E7
330
1E0
100
AcDbEntity
  8
0
100
AcDbBlockBegin
  2
*D7
 70
     1
 10
0.0
 20
0.0
 30
0.0
  3
*D7
  1

  0
LINE
  5
1E1
330
1E0
100
AcDbEntity
  8
1
  6
Continuous
 62
     3
100
AcDbLine
 10
128.936842105263
 20
-41.87062778388539
 30
0.0
 11
148.936842105263
 21
-41.87062778388539
 31
0.0
  0
LINE
  5
1E2
330
1E0
100
AcDbEntity
  8
1
  6
Continuous
 62
     3
100
AcDbLine
 10
128.936842105263
 20
-73.0
 30
0.0
 11
128.936842105263
 21
-37.87062778388539
 31
0.0
  0
LINE
  5
1E3
330
1E0
100
AcDbEntity
  8
1
  6
Continuous
 62
     3
100
AcDbLine
 10
148.936842105263
 20
-73.0
 30
0.0
 11
148.936842105263
 21
-37.87062778388539
 31
0.0
  0
SOLID
  5
1E4
330
1E0
100
AcDbEntity
  8
1
 62
     3
100
AcDbTrace
 10
135.936842105263
 20
-40.94906030077362
 30
0.0
 11
135.936842105263
 21
-42.79219526699716
 31
0.0
 12
128.936842105263
 22
-41.87062778388539
 32
0.0
 13
128.936842105263
 23
-41.87062778388539
 33
0.0
  0
SOLID
  5
1E5
330
1E0
100
AcDbEntity
  8
1
 62
     3
100
AcDbTrace
 10
141.936842105263
 20
-42.79219526699716
 30
0.0
 11
141.936842105263
 21
-40.94906030077362
 31
0.0
 12
148.936842105263
 22
-41.87062778388539
 32
0.0
 13
148.936842105263
 23
-41.87062778388539
 33
0.0
  0
MTEXT
  5
1E6
330
1E0
100
AcDbEntity
  8
1
 62
     2
100
AcDbMText
 10
133.686842105263
 20
-38.67062778388539
 30
0.0
 40
7.0
 41
0.0
 71
     7
 72
     1
  1
20
  7
CONVERTER_12
 11
0.9999999999970619
 21
2.424068405545306E-6
 31
0.0
 73
     1
 44
0.60024009603842
  0
ENDBLK
  5
1E8
330
1E0
100
AcDbEntity
  8
0
100
AcDbBlockEnd
  0
BLOCK
  5
1F2
330
1EB
100
AcDbEntity
  8
0
100
AcDbBlockBegin
  2
*D8
 70
     1
 10
0.0
 20
0.0
 30
0.0
  3
*D8
  1

  0
LINE
  5
1EC
330
1EB
100
AcDbEntity
  8
1
  6
Continuous
 62
     3
100
AcDbLine
 10
-82.28947368561516
 20
-41.87062778388539
 30
0.0
 11
-59.28947368561516
 21
-41.87062778388539
 31
0.0
  0
LINE
  5
1ED
330
1EB
100
AcDbEntity
  8
1
  6
Continuous
 62
     3
100
AcDbLine
 10
-82.28947368561516
 20
-53.75
 30
0.0
 11
-82.28947368561516
 21
-37.87062778388539
 31
0.0
  0
LINE
  5
1EE
330
1EB
100
AcDbEntity
  8
1
  6
Continuous
 62
     3
100
AcDbLine
 10
-59.28947368561516
 20
-70.0
 30
0.0
 11
-59.28947368561516
 21
-37.87062778388539
 31
0.0
  0
SOLID
  5
1EF
330
1EB
100
AcDbEntity
  8
1
 62
     3
100
AcDbTrace
 10
-75.28947368561516
 20
-40.94906030077362
 30
0.0
 11
-75.28947368561516
 21
-42.79219526699716
 31
0.0
 12
-82.28947368561516
 22
-41.87062778388539
 32
0.0
 13
-82.28947368561516
 23
-41.87062778388539
 33
0.0
  0
SOLID
  5
1F0
330
1EB
100
AcDbEntity
  8
1
 62
     3
100
AcDbTrace
 10
-66.28947368561516
 20
-42.79219526699716
 30
0.0
 11
-66.28947368561516
 21
-40.94906030077362
 31
0.0
 12
-59.28947368561516
 22
-41.87062778388539
 32
0.0
 13
-59.28947368561516
 23
-41.87062778388539
 33
0.0
  0
MTEXT
  5
1F1
330
1EB
100
AcDbEntity
  8
1
 62
     2
100
AcDbMText
 10
-76.03947368561516
 20
-38.67062778388539
 30
0.0
 40
7.0
 41
0.0
 71
     7
 72
     1
  1
23
  7
CONVERTER_12
 11
0.9999999999970619
 21
2.424068405545306E-6
 31
0.0
 73
     1
 44
0.60024009603842
  0
ENDBLK
  5
1F3
330
1EB
100
AcDbEntity
  8
0
100
AcDbBlockEnd
  0
BLOCK
  5
1FD
330
1F6
100
AcDbEntity
  8
0
100
AcDbBlockBegin
  2
*D9
 70
     1
 10
0.0
 20
0.0
 30
0.0
  3
*D9
  1

  0
LINE
  5
1F7
330
1F6
100
AcDbEntity
  8
1
  6
Continuous
 62
     3
100
AcDbLine
 10
-124.0394736856151
 20
-21.8706277838854
 30
0.0
 11
-40.53947368561517
 21
-21.8706277838854
 31
0.0
  0
LINE
  5
1F8
330
1F6
100
AcDbEntity
  8
1
  6
Continuous
 62
     3
100
AcDbLine
 10
-124.0394736856152
 20
-60.0
 30
0.0
 11
-124.0394736856152
 21
-17.8706277838854
 31
0.0
  0
LINE
  5
1F9
330
1F6
100
AcDbEntity
  8
1
  6
Continuous
 62
     3
100
AcDbLine
 10
-40.53947368561517
 20
-60.0
 30
0.0
 11
-40.53947368561517
 21
-17.8706277838854
 31
0.0
  0
SOLID
  5
1FA
330
1F6
100
AcDbEntity
  8
1
 62
     3
100
AcDbTrace
 10
-117.0394736856151
 20
-20.94906030077362
 30
0.0
 11
-117.0394736856151
 21
-22.79219526699717
 31
0.0
 12
-124.0394736856151
 22
-21.8706277838854
 32
0.0
 13
-124.0394736856151
 23
-21.8706277838854
 33
0.0
  0
SOLID
  5
1FB
330
1F6
100
AcDbEntity
  8
1
 62
     3
100
AcDbTrace
 10
-47.53947368561517
 20
-22.79219526699717
 30
0.0
 11
-47.53947368561517
 21
-20.94906030077362
 31
0.0
 12
-40.53947368561517
 22
-21.8706277838854
 32
0.0
 13
-40.53947368561517
 23
-21.8706277838854
 33
0.0
  0
MTEXT
  5
1FC
330
1F6
100
AcDbEntity
  8
1
 62
     2
100
AcDbMText
 10
-91.91447368561518
 20
-17.9706277838854
 30
0.0
 40
7.0
 41
0.0
 71
     7
 72
     1
  1
83,5
  7
CONVERTER_12
 11
0.9999999999970619
 21
2.424068405545306E-6
 31
0.0
 73
     1
 44
0.60024009603842
  0
ENDBLK
  5
1FE
330
1F6
100
AcDbEntity
  8
0
100
AcDbBlockEnd
  0
BLOCK
  5
208
330
201
100
AcDbEntity
  8
0
100
AcDbBlockBegin
  2
*D10
 70
     1
 10
0.0
 20
0.0
 30
0.0
  3
*D10
  1

  0
LINE
  5
202
330
201
100
AcDbEntity
  8
1
  6
Continuous
 62
     3
100
AcDbLine
 10
-134.0394736856152
 20
-1.8706277838854
 30
0.0
 11
-30.53947368561515
 21
-1.8706277838854
 31
0.0
  0
LINE
  5
203
330
201
100
AcDbEntity
  8
1
  6
Continuous
 62
     3
100
AcDbLine
 10
-134.0394736856152
 20
-66.75
 30
0.0
 11
-134.0394736856152
 21
2.1293722161146
 31
0.0
  0
LINE
  5
204
330
201
100
AcDbEntity
  8
1
  6
Continuous
 62
     3
100
AcDbLine
 10
-30.53947368561516
 20
-66.75
 30
0.0
 11
-30.53947368561516
 21
2.1293722161146
 31
0.0
  0
SOLID
  5
205
330
201
100
AcDbEntity
  8
1
 62
     3
100
AcDbTrace
 10
-127.0394736856152
 20
-0.94906030077363
 30
0.0
 11
-127.0394736856152
 21
-2.79219526699717
 31
0.0
 12
-134.0394736856152
 22
-1.8706277838854
 32
0.0
 13
-134.0394736856152
 23
-1.8706277838854
 33
0.0
  0
SOLID
  5
206
330
201
100
AcDbEntity
  8
1
 62
     3
100
AcDbTrace
 10
-37.53947368561515
 20
-2.79219526699717
 30
0.0
 11
-37.53947368561515
 21
-0.94906030077363
 31
0.0
 12
-30.53947368561515
 22
-1.8706277838854
 32
0.0
 13
-30.53947368561515
 23
-1.8706277838854
 33
0.0
  0
MTEXT
  5
207
330
201
100
AcDbEntity
  8
1
 62
     2
100
AcDbMText
 10
-94.01447368561517
 20
2.0293722161146
 30
0.0
 40
7.0
 41
0.0
 71
     7
 72
     1
  1
103,5
  7
CONVERTER_12
 11
0.9999999999970619
 21
2.424068405545306E-6
 31
0.0
 73
     1
 44
0.60024009603842
  0
ENDBLK
  5
209
330
201
100
AcDbEntity
  8
0
100
AcDbBlockEnd
  0
BLOCK
  5
213
330
20C
100
AcDbEntity
  8
0
100
AcDbBlockBegin
  2
*D11
 70
     1
 10
0.0
 20
0.0
 30
0.0
  3
*D11
  1

  0
LINE
  5
20D
330
20C
100
AcDbEntity
  8
1
  6
Continuous
 62
     3
100
AcDbLine
 10
-217.0894736856152
 20
-56.75000000000006
 30
0.0
 11
-217.0894736856152
 21
-199.2500000000001
 31
0.0
  0
LINE
  5
20E
330
20C
100
AcDbEntity
  8
1
  6
Continuous
 62
     3
100
AcDbLine
 10
-124.0394736856152
 20
-199.2500000000001
 30
0.0
 11
-221.0894736856152
 21
-199.2500000000001
 31
0.0
  0
LINE
  5
20F
330
20C
100
AcDbEntity
  8
1
  6
Continuous
 62
     3
100
AcDbLine
 10
-124.0394736856152
 20
-56.75000000000006
 30
0.0
 11
-221.0894736856152
 21
-56.75000000000006
 31
0.0
  0
SOLID
  5
210
330
20C
100
AcDbEntity
  8
1
 62
     3
100
AcDbTrace
 10
-216.1679062025034
 20
-63.75000000000006
 30
0.0
 11
-218.011041168727
 21
-63.75000000000006
 31
0.0
 12
-217.0894736856152
 22
-56.75000000000006
 32
0.0
 13
-217.0894736856152
 23
-56.75000000000006
 33
0.0
  0
SOLID
  5
211
330
20C
100
AcDbEntity
  8
1
 62
     3
100
AcDbTrace
 10
-218.011041168727
 20
-192.2500000000001
 30
0.0
 11
-216.1679062025034
 21
-192.2500000000001
 31
0.0
 12
-217.0894736856152
 22
-199.2500000000001
 32
0.0
 13
-217.0894736856152
 23
-199.2500000000001
 33
0.0
  0
MTEXT
  5
212
330
20C
100
AcDbEntity
  8
1
 62
     2
100
AcDbMText
 10
-220.9894736856152
 20
-139.3547181783471
 30
0.0
 40
7.0
 41
0.0
 71
     7
 72
     1
  1
142,5
  7
CONVERTER_12
 11
0.0
 21
1.0
 31
0.0
 73
     1
 44
0.60024009603842
  0
ENDBLK
  5
214
330
20C
100
AcDbEntity
  8
0
100
AcDbBlockEnd
  0
BLOCK
  5
21E
330
217
100
AcDbEntity
  8
0
100
AcDbBlockBegin
  2
*D12
 70
     1
 10
0.0
 20
0.0
 30
0.0
  3
*D12
  1

  0
LINE
  5
218
330
217
100
AcDbEntity
  8
1
  6
Continuous
 62
     3
100
AcDbLine
 10
-197.0894736856152
 20
-67.00000000000001
 30
0.0
 11
-197.0894736856152
 21
-189.0
 31
0.0
  0
LINE
  5
219
330
217
100
AcDbEntity
  8
1
  6
Continuous
 62
     3
100
AcDbLine
 10
-131.0394736856152
 20
-189.0
 30
0.0
 11
-201.0894736856152
 21
-189.0
 31
0.0
  0
LINE
  5
21A
330
217
100
AcDbEntity
  8
1
  6
Continuous
 62
     3
100
AcDbLine
 10
-131.0394736856152
 20
-67.00000000000001
 30
0.0
 11
-201.0894736856152
 21
-67.00000000000001
 31
0.0
  0
SOLID
  5
21B
330
217
100
AcDbEntity
  8
1
 62
     3
100
AcDbTrace
 10
-196.1679062025034
 20
-74.00000000000001
 30
0.0
 11
-198.011041168727
 21
-74.00000000000001
 31
0.0
 12
-197.0894736856152
 22
-67.00000000000001
 32
0.0
 13
-197.0894736856152
 23
-67.00000000000001
 33
0.0
  0
SOLID
  5
21C
330
217
100
AcDbEntity
  8
1
 62
     3
100
AcDbTrace
 10
-198.011041168727
 20
-182.0
 30
0.0
 11
-196.1679062025034
 21
-182.0
 31
0.0
 12
-197.0894736856152
 22
-189.0
 32
0.0
 13
-197.0894736856152
 23
-189.0
 33
0.0
  0
MTEXT
  5
21D
330
217
100
AcDbEntity
  8
1
 62
     2
100
AcDbMText
 10
-200.2894736856152
 20
-136.036142376056
 30
0.0
 40
7.0
 41
0.0
 71
     7
 72
     1
  1
122
  7
CONVERTER_12
 11
0.0
 21
1.0
 31
0.0
 73
     1
 44
0.60024009603842
  0
ENDBLK
  5
21F
330
217
100
AcDbEntity
  8
0
100
AcDbBlockEnd
  0
BLOCK
  5
229
330
222
100
AcDbEntity
  8
0
100
AcDbBlockBegin
  2
*D13
 70
     1
 10
0.0
 20
0.0
 30
0.0
  3
*D13
  1

  0
LINE
  5
223
330
222
100
AcDbEntity
  8
1
  6
Continuous
 62
     3
100
AcDbLine
 10
-177.0894736856152
 20
-178.0
 30
0.0
 11
-177.0894736856152
 21
-78.0
 31
0.0
  0
LINE
  5
224
330
222
100
AcDbEntity
  8
1
  6
Continuous
 62
     3
100
AcDbLine
 10
-115.7894736856152
 20
-178.0
 30
0.0
 11
-181.0894736856152
 21
-178.0
 31
0.0
  0
LINE
  5
225
330
222
100
AcDbEntity
  8
1
  6
Continuous
 62
     3
100
AcDbLine
 10
-115.7894736856152
 20
-78.0
 30
0.0
 11
-181.0894736856152
 21
-78.0
 31
0.0
  0
SOLID
  5
226
330
222
100
AcDbEntity
  8
1
 62
     3
100
AcDbTrace
 10
-176.1679062025034
 20
-85.0
 30
0.0
 11
-178.011041168727
 21
-85.0
 31
0.0
 12
-177.0894736856152
 22
-78.0
 32
0.0
 13
-177.0894736856152
 23
-78.0
 33
0.0
  0
SOLID
  5
227
330
222
100
AcDbEntity
  8
1
 62
     3
100
AcDbTrace
 10
-178.011041168727
 20
-171.0
 30
0.0
 11
-176.1679062025034
 21
-171.0
 31
0.0
 12
-177.0894736856152
 22
-178.0
 32
0.0
 13
-177.0894736856152
 23
-178.0
 33
0.0
  0
MTEXT
  5
228
330
222
100
AcDbEntity
  8
1
 62
     2
100
AcDbMText
 10
-180.2894736856152
 20
-135.684434054974
 30
0.0
 40
7.0
 41
0.0
 71
     7
 72
     1
  1
100
  7
CONVERTER_12
 11
0.0
 21
1.0
 31
0.0
 73
     1
 44
0.60024009603842
  0
ENDBLK
  5
22A
330
222
100
AcDbEntity
  8
0
100
AcDbBlockEnd
  0
BLOCK
  5
236
330
22D
100
AcDbEntity
  8
0
100
AcDbBlockBegin
  2
*D14
 70
     1
 10
0.0
 20
0.0
 30
0.0
  3
*D14
  1

  0
LINE
  5
22E
330
22D
100
AcDbEntity
  8
1
  6
Continuous
 62
     3
100
AcDbLine
 10
92.2423590335069
 20
-225.95
 30
0.0
 11
107.936842105263
 21
-225.95
 31
0.0
  0
LINE
  5
22F
330
22D
100
AcDbEntity
  8
1
  6
Continuous
 62
     3
100
AcDbLine
 10
107.936842105263
 20
-225.95
 30
0.0
 11
112.936842105263
 21
-225.95
 31
0.0
  0
LINE
  5
230
330
22D
100
AcDbEntity
  8
1
  6
Continuous
 62
     3
100
AcDbLine
 10
112.936842105263
 20
-225.95
 30
0.0
 11
126.936842105263
 21
-225.95
 31
0.0
  0
LINE
  5
231
330
22D
100
AcDbEntity
  8
1
  6
Continuous
 62
     3
100
AcDbLine
 10
107.936842105263
 20
-199.25
 30
0.0
 11
107.936842105263
 21
-229.95
 31
0.0
  0
LINE
  5
232
330
22D
100
AcDbEntity
  8
1
  6
Continuous
 62
     3
100
AcDbLine
 10
112.936842105263
 20
-196.75
 30
0.0
 11
112.936842105263
 21
-229.95
 31
0.0
  0
SOLID
  5
233
330
22D
100
AcDbEntity
  8
1
 62
     3
100
AcDbTrace
 10
100.936842105263
 20
-226.8715674831118
 30
0.0
 11
100.936842105263
 21
-225.0284325168882
 31
0.0
 12
107.936842105263
 22
-225.95
 32
0.0
 13
107.936842105263
 23
-225.95
 33
0.0
  0
SOLID
  5
234
330
22D
100
AcDbEntity
  8
1
 62
     3
100
AcDbTrace
 10
119.936842105263
 20
-225.0284325168882
 30
0.0
 11
119.936842105263
 21
-226.8715674831118
 31
0.0
 12
112.936842105263
 22
-225.95
 32
0.0
 13
112.936842105263
 23
-225.95
 33
0.0
  0
MTEXT
  5
235
330
22D
100
AcDbEntity
  8
1
 62
     2
100
AcDbMText
 10
92.2423590335069
 20
-222.75
 30
0.0
 40
7.0
 41
0.0
 71
     7
 72
     1
  1
5
  7
CONVERTER_12
 11
0.9999999999970619
 21
2.424068405545306E-6
 31
0.0
 73
     1
 44
0.60024009603842
  0
ENDBLK
  5
237
330
22D
100
AcDbEntity
  8
0
100
AcDbBlockEnd
  0
BLOCK
  5
241
330
23A
100
AcDbEntity
  8
0
100
AcDbBlockBegin
  2
*D15
 70
     1
 10
0.0
 20
0.0
 30
0.0
  3
*D15
  1

  0
LINE
  5
23B
330
23A
100
AcDbEntity
  8
1
  6
Continuous
 62
     3
100
AcDbLine
 10
107.936842105263
 20
-299.7
 30
0.0
 11
172.936842105263
 21
-299.7
 31
0.0
  0
LINE
  5
23C
330
23A
100
AcDbEntity
  8
1
  6
Continuous
 62
     3
100
AcDbLine
 10
107.936842105263
 20
-199.25
 30
0.0
 11
107.936842105263
 21
-303.7
 31
0.0
  0
LINE
  5
23D
330
23A
100
AcDbEntity
  8
1
  6
Continuous
 62
     3
100
AcDbLine
 10
172.936842105263
 20
-173.0
 30
0.0
 11
172.936842105263
 21
-303.7
 31
0.0
  0
SOLID
  5
23E
330
23A
100
AcDbEntity
  8
1
 62
     3
100
AcDbTrace
 10
114.936842105263
 20
-298.7784325168882
 30
0.0
 11
114.936842105263
 21
-300.6215674831117
 31
0.0
 12
107.936842105263
 22
-299.7
 32
0.0
 13
107.936842105263
 23
-299.7
 33
0.0
  0
SOLID
  5
23F
330
23A
100
AcDbEntity
  8
1
 62
     3
100
AcDbTrace
 10
165.936842105263
 20
-300.6215674831117
 30
0.0
 11
165.936842105263
 21
-298.7784325168882
 31
0.0
 12
172.936842105263
 22
-299.7
 32
0.0
 13
172.936842105263
 23
-299.7
 33
0.0
  0
MTEXT
  5
240
330
23A
100
AcDbEntity
  8
1
 62
     2
100
AcDbMText
 10
135.186842105263
 20
-296.5
 30
0.0
 40
7.0
 41
0.0
 71
     7
 72
     1
  1
65
  7
CONVERTER_12
 11
0.9999999999970619
 21
2.424068405545306E-6
 31
0.0
 73
     1
 44
0.60024009603842
  0
ENDBLK
  5
242
330
23A
100
AcDbEntity
  8
0
100
AcDbBlockEnd
  0
BLOCK
  5
24C
330
245
100
AcDbEntity
  8
0
100
AcDbBlockBegin
  2
*D16
 70
     1
 10
0.0
 20
0.0
 30
0.0
  3
*D16
  1

  0
LINE
  5
246
330
245
100
AcDbEntity
  8
1
  6
Continuous
 62
     3
100
AcDbLine
 10
177.936842105263
 20
-319.7
 30
0.0
 11
107.936842105263
 21
-319.7
 31
0.0
  0
LINE
  5
247
330
245
100
AcDbEntity
  8
1
  6
Continuous
 62
     3
100
AcDbLine
 10
107.936842105263
 20
-199.25
 30
0.0
 11
107.936842105263
 21
-323.7
 31
0.0
  0
LINE
  5
248
330
245
100
AcDbEntity
  8
1
  6
Continuous
 62
     3
100
AcDbLine
 10
177.936842105263
 20
-291.75
 30
0.0
 11
177.936842105263
 21
-323.7
 31
0.0
  0
SOLID
  5
249
330
245
100
AcDbEntity
  8
1
 62
     3
100
AcDbTrace
 10
170.936842105263
 20
-320.6215674831117
 30
0.0
 11
170.936842105263
 21
-318.7784325168882
 31
0.0
 12
177.936842105263
 22
-319.7
 32
0.0
 13
177.936842105263
 23
-319.7
 33
0.0
  0
SOLID
  5
24A
330
245
100
AcDbEntity
  8
1
 62
     3
100
AcDbTrace
 10
114.936842105263
 20
-318.7784325168882
 30
0.0
 11
114.936842105263
 21
-320.6215674831117
 31
0.0
 12
107.936842105263
 22
-319.7
 32
0.0
 13
107.936842105263
 23
-319.7
 33
0.0
  0
MTEXT
  5
24B
330
245
100
AcDbEntity
  8
1
 62
     2
100
AcDbMText
 10
138.724391273591
 20
-316.5
 30
0.0
 40
7.0
 41
0.0
 71
     7
 72
     1
  1
70
  7
CONVERTER_12
 11
0.9999999999970619
 21
2.424068405545306E-6
 31
0.0
 73
     1
 44
0.60024009603842
  0
ENDBLK
  5
24D
330
245
100
AcDbEntity
  8
0
100
AcDbBlockEnd
  0
BLOCK
  5
257
330
250
100
AcDbEntity
  8
0
100
AcDbBlockBegin
  2
*D17
 70
     1
 10
0.0
 20
0.0
 30
0.0
  3
*D17
  1

  0
LINE
  5
251
330
250
100
AcDbEntity
  8
1
  6
Continuous
 62
     3
100
AcDbLine
 10
107.936842105263
 20
-340.05
 30
0.0
 11
277.9368421052634
 21
-340.05
 31
0.0
  0
LINE
  5
252
330
250
100
AcDbEntity
  8
1
  6
Continuous
 62
     3
100
AcDbLine
 10
277.9368421052634
 20
-283.0
 30
0.0
 11
277.9368421052634
 21
-344.05
 31
0.0
  0
LINE
  5
253
330
250
100
AcDbEntity
  8
1
  6
Continuous
 62
     3
100
AcDbLine
 10
107.936842105263
 20
-199.25
 30
0.0
 11
107.936842105263
 21
-344.05
 31
0.0
  0
SOLID
  5
254
330
250
100
AcDbEntity
  8
1
 62
     3
100
AcDbTrace
 10
114.936842105263
 20
-339.1284325168883
 30
0.0
 11
114.936842105263
 21
-340.9715674831118
 31
0.0
 12
107.936842105263
 22
-340.05
 32
0.0
 13
107.936842105263
 23
-340.05
 33
0.0
  0
SOLID
  5
255
330
250
100
AcDbEntity
  8
1
 62
     3
100
AcDbTrace
 10
270.9368421052634
 20
-340.9715674831118
 30
0.0
 11
270.9368421052634
 21
-339.1284325168883
 31
0.0
 12
277.9368421052634
 22
-340.05
 32
0.0
 13
277.9368421052634
 23
-340.05
 33
0.0
  0
MTEXT
  5
256
330
250
100
AcDbEntity
  8
1
 62
     2
100
AcDbMText
 10
188.727080886734
 20
-336.85
 30
0.0
 40
7.0
 41
0.0
 71
     7
 72
     1
  1
170
  7
CONVERTER_12
 11
0.9999999999970619
 21
2.424068405545306E-6
 31
0.0
 73
     1
 44
0.60024009603842
  0
ENDBLK
  5
258
330
250
100
AcDbEntity
  8
0
100
AcDbBlockEnd
  0
BLOCK
  5
262
330
25B
100
AcDbEntity
  8
0
100
AcDbBlockBegin
  2
*D18
 70
     1
 10
0.0
 20
0.0
 30
0.0
  3
*D18
  1

  0
LINE
  5
25C
330
25B
100
AcDbEntity
  8
1
  6
Continuous
 62
     3
100
AcDbLine
 10
301.588169836937
 20
-128.0000000000001
 30
0.0
 11
301.588169836937
 21
-283.0000000000001
 31
0.0
  0
LINE
  5
25D
330
25B
100
AcDbEntity
  8
1
  6
Continuous
 62
     3
100
AcDbLine
 10
194.743378418112
 20
-128.0000000000001
 30
0.0
 11
305.588169836937
 21
-128.0000000000001
 31
0.0
  0
LINE
  5
25E
330
25B
100
AcDbEntity
  8
1
  6
Continuous
 62
     3
100
AcDbLine
 10
280.9368421052633
 20
-283.0000000000001
 30
0.0
 11
305.588169836937
 21
-283.0000000000001
 31
0.0
  0
SOLID
  5
25F
330
25B
100
AcDbEntity
  8
1
 62
     3
100
AcDbTrace
 10
302.5097373200487
 20
-135.0000000000001
 30
0.0
 11
300.6666023538252
 21
-135.0000000000001
 31
0.0
 12
301.588169836937
 22
-128.0000000000001
 32
0.0
 13
301.588169836937
 23
-128.0000000000001
 33
0.0
  0
SOLID
  5
260
330
25B
100
AcDbEntity
  8
1
 62
     3
100
AcDbTrace
 10
300.6666023538252
 20
-276.0000000000001
 30
0.0
 11
302.5097373200487
 21
-276.0000000000001
 31
0.0
 12
301.588169836937
 22
-283.0000000000001
 32
0.0
 13
301.588169836937
 23
-283.0000000000001
 33
0.0
  0
MTEXT
  5
261
330
25B
100
AcDbEntity
  8
1
 62
     2
100
AcDbMText
 10
298.388169836937
 20
-216.0470553638448
 30
0.0
 40
7.0
 41
0.0
 71
     7
 72
     1
  1
155
  7
CONVERTER_12
 11
0.0
 21
1.0
 31
0.0
 73
     1
 44
0.60024009603842
  0
ENDBLK
  5
263
330
25B
100
AcDbEntity
  8
0
100
AcDbBlockEnd
  0
BLOCK
  5
26F
330
266
100
AcDbEntity
  8
0
100
AcDbBlockBegin
  2
*D19
 70
     1
 10
0.0
 20
0.0
 30
0.0
  3
*D19
  1

  0
LINE
  5
267
330
266
100
AcDbEntity
  8
1
  6
Continuous
 62
     3
100
AcDbLine
 10
-142.0394736856152
 20
-225.7
 30
0.0
 11
-128.0394736856152
 21
-225.7
 31
0.0
  0
LINE
  5
268
330
266
100
AcDbEntity
  8
1
  6
Continuous
 62
     3
100
AcDbLine
 10
-128.0394736856152
 20
-225.7
 30
0.0
 11
-120.0394736856152
 21
-225.7
 31
0.0
  0
LINE
  5
269
330
266
100
AcDbEntity
  8
1
  6
Continuous
 62
     3
100
AcDbLine
 10
-120.0394736856152
 20
-225.7
 30
0.0
 11
-97.6695389933862
 21
-225.7
 31
0.0
  0
LINE
  5
26A
330
266
100
AcDbEntity
  8
1
  6
Continuous
 62
     3
100
AcDbLine
 10
-120.0394736856152
 20
-189.0
 30
0.0
 11
-120.0394736856152
 21
-229.7
 31
0.0
  0
LINE
  5
26B
330
266
100
AcDbEntity
  8
1
  6
Continuous
 62
     3
100
AcDbLine
 10
-128.0394736856152
 20
-189.0
 30
0.0
 11
-128.0394736856152
 21
-229.7
 31
0.0
  0
SOLID
  5
26C
330
266
100
AcDbEntity
  8
1
 62
     3
100
AcDbTrace
 10
-135.0394736856152
 20
-226.6215674831118
 30
0.0
 11
-135.0394736856152
 21
-224.7784325168882
 31
0.0
 12
-128.0394736856152
 22
-225.7
 32
0.0
 13
-128.0394736856152
 23
-225.7
 33
0.0
  0
SOLID
  5
26D
330
266
100
AcDbEntity
  8
1
 62
     3
100
AcDbTrace
 10
-113.0394736856152
 20
-224.7784325168882
 30
0.0
 11
-113.0394736856152
 21
-226.6215674831118
 31
0.0
 12
-120.0394736856152
 22
-225.7
 32
0.0
 13
-120.0394736856152
 23
-225.7
 33
0.0
  0
MTEXT
  5
26E
330
266
100
AcDbEntity
  8
1
 62
     2
100
AcDbMText
 10
-107.6095389933693
 20
-222.5000139141526
 30
0.0
 40
7.0
 41
0.0
 71
     7
 72
     1
  1
\C2;%%c\C2;8
  7
CONVERTER_12
 11
0.9999999999970619
 21
2.424068405545306E-6
 31
0.0
 73
     1
 44
0.60024009603842
  0
ENDBLK
  5
270
330
266
100
AcDbEntity
  8
0
100
AcDbBlockEnd
  0
ENDSEC
  0
SECTION
  2
ENTITIES
  0
INSERT
  5
52
330
1F
100
AcDbEntity
  8
0
100
AcDbBlockReference
  2
_tb_frame_A3_2000
 10
-0.49950645420432
 20
-252.6626009051986
 30
0.0
 41
2.0
 42
2.0
 43
2.0
  0
INSERT
  5
53
330
1F
100
AcDbEntity
  8
1
100
AcDbBlockReference
  2
_TD_WA50_de_gb_fr
 10
-234.5340734352449
 20
-81.70615717946177
 30
0.0
 41
2.0
 42
2.0
 43
2.0
  0
LINE
  5
148
330
1F
100
AcDbEntity
  8
1
  6
Continuous
 62
     7
100
AcDbLine
 10
153.936842105263
 20
-78.0
 30
0.0
 11
153.4523915474034
 21
-78.0
 31
0.0
  0
LINE
  5
149
330
1F
100
AcDbEntity
  8
1
  6
Continuous
 62
     7
100
AcDbLine
 10
123.936842105263
 20
-78.0
 30
0.0
 11
112.936842105263
 21
-78.0
 31
0.0
  0
LINE
  5
14A
330
1F
100
AcDbEntity
  8
1
  6
Continuous
 62
     7
100
AcDbLine
 10
128.936842105263
 20
-73.0
 30
0.0
 11
128.4523915474034
 21
-73.0
 31
0.0
  0
LINE
  5
14B
330
1F
100
AcDbEntity
  8
1
  6
Continuous
 62
     7
100
AcDbLine
 10
149.4212926631226
 20
-73.0
 30
0.0
 11
148.936842105263
 21
-73.0
 31
0.0
  0
LINE
  5
14C
330
1F
100
AcDbEntity
  8
1
  6
Continuous
 62
     7
100
AcDbLine
 10
124.4212926631226
 20
-78.0
 30
0.0
 11
123.936842105263
 21
-78.0
 31
0.0
  0
LINE
  5
14D
330
1F
100
AcDbEntity
  8
1
  6
Continuous
 62
     7
100
AcDbLine
 10
125.8140076994505
 20
-77.0570860145312
 30
0.0
 11
127.0596765110755
 21
-73.9429139854689
 31
0.0
  0
LINE
  5
14E
330
1F
100
AcDbEntity
  8
1
  6
Continuous
 62
     7
100
AcDbLine
 10
153.936842105263
 20
-78.0
 30
0.0
 11
123.936842105263
 21
-78.0
 31
0.0
  0
LINE
  5
14F
330
1F
100
AcDbEntity
  8
1
  6
Continuous
 62
     7
100
AcDbLine
 10
152.0596765110755
 20
-77.0570860145312
 30
0.0
 11
150.8140076994505
 21
-73.9429139854689
 31
0.0
  0
LINE
  5
150
330
1F
100
AcDbEntity
  8
1
  6
Continuous
 62
     7
100
AcDbLine
 10
148.936842105263
 20
-73.0
 30
0.0
 11
128.936842105263
 21
-73.0
 31
0.0
  0
LINE
  5
151
330
1F
100
AcDbEntity
  8
1
  6
Continuous
 62
     7
100
AcDbLine
 10
-115.7894736856152
 20
-78.0
 30
0.0
 11
-48.78947368561516
 21
-78.0
 31
0.0
  0
LINE
  5
152
330
1F
100
AcDbEntity
  8
1
  6
Continuous
 62
     7
100
AcDbLine
 10
-40.78947368561516
 20
-86.0
 30
0.0
 11
-40.78947368561516
 21
-170.0
 31
0.0
  0
LINE
  5
153
330
1F
100
AcDbEntity
  8
1
  6
Continuous
 62
     7
100
AcDbLine
 10
-48.78947368561516
 20
-178.0
 30
0.0
 11
-73.89800976883241
 21
-178.0
 31
0.0
  0
LINE
  5
154
330
1F
100
AcDbEntity
  8
1
  6
Continuous
 62
     7
100
AcDbLine
 10
-123.7894736856152
 20
-170.0
 30
0.0
 11
-123.7894736856152
 21
-86.0
 31
0.0
  0
LINE
  5
155
330
1F
100
AcDbEntity
  8
1
  6
Continuous
 62
     7
100
AcDbLine
 10
-124.0394736856152
 20
-56.75
 30
0.0
 11
-40.53947368561516
 21
-56.75
 31
0.0
  0
LINE
  5
156
330
1F
100
AcDbEntity
  8
1
  6
Continuous
 62
     7
100
AcDbLine
 10
-30.53947368561516
 20
-66.75
 30
0.0
 11
-30.53947368561515
 21
-189.25
 31
0.0
  0
LINE
  5
157
330
1F
100
AcDbEntity
  8
1
  6
Continuous
 62
     7
100
AcDbLine
 10
-40.53947368561516
 20
-199.25
 30
0.0
 11
-74.58385056972331
 21
-199.25
 31
0.0
  0
LINE
  5
158
330
1F
100
AcDbEntity
  8
1
  6
Continuous
 62
     7
100
AcDbLine
 10
-134.0394736856152
 20
-189.25
 30
0.0
 11
-134.0394736856152
 21
-66.75
 31
0.0
  0
LINE
  5
159
330
1F
100
AcDbEntity
  8
1
  6
DOT_CENTER
 62
     3
100
AcDbLine
 10
-136.7894736856152
 20
-128.0
 30
0.0
 11
-27.78947368561516
 21
-128.0
 31
0.0
  0
LINE
  5
15A
330
1F
100
AcDbEntity
  8
1
  6
DOT_CENTER
 62
     3
100
AcDbLine
 10
-82.28947368561516
 20
-296.0
 30
0.0
 11
-82.28947368561516
 21
-53.75
 31
0.0
  0
LINE
  5
15B
330
1F
100
AcDbEntity
  8
1
  6
DOT_CENTER
 62
     3
100
AcDbLine
 10
-33.53947368561516
 20
-67.0
 30
0.0
 11
-47.53947368561516
 21
-67.0
 31
0.0
  0
LINE
  5
15C
330
1F
100
AcDbEntity
  8
1
  6
DOT_CENTER
 62
     3
100
AcDbLine
 10
-40.53947368561516
 20
-60.0
 30
0.0
 11
-40.53947368561516
 21
-74.0
 31
0.0
  0
LINE
  5
15D
330
1F
100
AcDbEntity
  8
1
  6
DOT_CENTER
 62
     3
100
AcDbLine
 10
-117.0394736856152
 20
-67.0
 30
0.0
 11
-131.0394736856152
 21
-67.0
 31
0.0
  0
LINE
  5
15E
330
1F
100
AcDbEntity
  8
1
  6
DOT_CENTER
 62
     3
100
AcDbLine
 10
-124.0394736856152
 20
-60.0
 30
0.0
 11
-124.0394736856152
 21
-74.0
 31
0.0
  0
LINE
  5
15F
330
1F
100
AcDbEntity
  8
1
  6
DOT_CENTER
 62
     3
100
AcDbLine
 10
-117.0394736856152
 20
-189.0
 30
0.0
 11
-131.0394736856152
 21
-189.0
 31
0.0
  0
LINE
  5
160
330
1F
100
AcDbEntity
  8
1
  6
DOT_CENTER
 62
     3
100
AcDbLine
 10
-124.0394736856152
 20
-182.0
 30
0.0
 11
-124.0394736856152
 21
-196.0
 31
0.0
  0
LINE
  5
161
330
1F
100
AcDbEntity
  8
1
  6
DOT_CENTER
 62
     3
100
AcDbLine
 10
-33.53947368561516
 20
-189.0
 30
0.0
 11
-47.53947368561516
 21
-189.0
 31
0.0
  0
LINE
  5
162
330
1F
100
AcDbEntity
  8
1
  6
DOT_CENTER
 62
     3
100
AcDbLine
 10
-40.53947368561516
 20
-182.0
 30
0.0
 11
-40.53947368561516
 21
-196.0
 31
0.0
  0
LINE
  5
163
330
1F
100
AcDbEntity
  8
1
  6
Continuous
 62
     3
100
AcDbLine
 10
-48.78947368561516
 20
-173.0
 30
0.0
 11
-73.73663546274044
 21
-173.0
 31
0.0
  0
LINE
  5
164
330
1F
100
AcDbEntity
  8
1
  6
Continuous
 62
     3
100
AcDbLine
 10
-45.78947368561516
 20
-86.0
 30
0.0
 11
-45.78947368561516
 21
-170.0
 31
0.0
  0
LINE
  5
165
330
1F
100
AcDbEntity
  8
1
  6
Continuous
 62
     3
100
AcDbLine
 10
-115.7894736856152
 20
-83.0
 30
0.0
 11
-48.78947368561516
 21
-83.0
 31
0.0
  0
LINE
  5
166
330
1F
100
AcDbEntity
  8
1
  6
Continuous
 62
     3
100
AcDbLine
 10
-118.7894736856152
 20
-170.0
 30
0.0
 11
-118.7894736856152
 21
-86.0
 31
0.0
  0
LINE
  5
167
330
1F
100
AcDbEntity
  8
1
  6
Continuous
 62
     7
100
AcDbLine
 10
-66.20935966351927
 20
-74.3692663858785
 30
0.0
 11
-66.78947368561516
 21
-78.0
 31
0.0
  0
LINE
  5
168
330
1F
100
AcDbEntity
  8
1
  6
Continuous
 62
     7
100
AcDbLine
 10
-51.78947368561516
 20
-78.0
 30
0.0
 11
-52.36958770771106
 21
-74.3692663858785
 31
0.0
  0
LINE
  5
169
330
1F
100
AcDbEntity
  8
1
  6
Continuous
 62
     7
100
AcDbLine
 10
-64.71506761638163
 20
-73.0
 30
0.0
 11
-53.86387975484868
 21
-73.0
 31
0.0
  0
LINE
  5
16A
330
1F
100
AcDbEntity
  8
1
  6
DOT_CENTER
 62
     3
100
AcDbLine
 10
-59.28947368561516
 20
-81.0
 30
0.0
 11
-59.28947368561516
 21
-70.0
 31
0.0
  0
LINE
  5
16B
330
1F
100
AcDbEntity
  8
1
  6
DOT_CENTER
 62
     3
100
AcDbLine
 10
-69.28947368561516
 20
-283.0
 30
0.0
 11
-95.28947368561516
 21
-283.0
 31
0.0
  0
LINE
  5
16C
330
1F
100
AcDbEntity
  8
1
  6
Continuous
 62
     7
100
AcDbLine
 10
-92.28426941776333
 20
-128.3225806451613
 30
0.0
 11
-87.56623458516815
 21
-274.5055433129041
 31
0.0
  0
LINE
  5
16D
330
1F
100
AcDbEntity
  8
1
  6
Continuous
 62
     7
100
AcDbLine
 10
-77.01271278606222
 20
-274.5055433129041
 30
0.0
 11
-72.29467795346697
 21
-128.3225806451613
 31
0.0
  0
LINE
  5
16E
330
1F
100
AcDbEntity
  8
1
  6
Continuous
 62
     3
100
AcDbLine
 10
-90.84231190848989
 20
-173.0
 30
0.0
 11
-115.7894736856152
 21
-173.0
 31
0.0
  0
LINE
  5
16F
330
1F
100
AcDbEntity
  8
1
  6
Continuous
 62
     7
100
AcDbLine
 10
-90.68093760239792
 20
-178.0
 30
0.0
 11
-115.7894736856152
 21
-178.0
 31
0.0
  0
LINE
  5
170
330
1F
100
AcDbEntity
  8
1
  6
Continuous
 62
     7
100
AcDbLine
 10
-89.99509680150702
 20
-199.25
 30
0.0
 11
-124.0394736856152
 21
-199.25
 31
0.0
  0
LINE
  5
171
330
1F
100
AcDbEntity
  8
1
  6
Continuous
 62
     7
100
AcDbLine
 10
107.936842105263
 20
-56.75
 30
0.0
 11
110.436842105263
 21
-56.75
 31
0.0
  0
LINE
  5
172
330
1F
100
AcDbEntity
  8
1
  6
Continuous
 62
     7
100
AcDbLine
 10
110.436842105263
 20
-199.25
 30
0.0
 11
107.936842105263
 21
-199.25
 31
0.0
  0
LINE
  5
173
330
1F
100
AcDbEntity
  8
1
  6
Continuous
 62
     7
100
AcDbLine
 10
107.936842105263
 20
-199.25
 30
0.0
 11
107.936842105263
 21
-56.75
 31
0.0
  0
LINE
  5
174
330
1F
100
AcDbEntity
  8
1
  6
Continuous
 62
     7
100
AcDbLine
 10
167.936842105263
 20
-78.0
 30
0.0
 11
153.936842105263
 21
-78.0
 31
0.0
  0
LINE
  5
175
330
1F
100
AcDbEntity
  8
1
  6
Continuous
 62
     7
100
AcDbLine
 10
112.936842105263
 20
-59.25
 30
0.0
 11
112.936842105263
 21
-196.75
 31
0.0
  0
LINE
  5
176
330
1F
100
AcDbEntity
  8
1
  6
Continuous
 62
     7
100
AcDbLine
 10
167.936842105263
 20
-178.0
 30
0.0
 11
112.936842105263
 21
-178.0
 31
0.0
  0
LINE
  5
177
330
1F
100
AcDbEntity
  8
1
  6
DOT_CENTER
 62
     3
100
AcDbLine
 10
104.936842105263
 20
-128.0
 30
0.0
 11
194.743378418112
 21
-128.0
 31
0.0
  0
LINE
  5
178
330
1F
100
AcDbEntity
  8
1
  6
Continuous
 62
     7
100
AcDbLine
 10
177.936842105263
 20
-135.5
 30
0.0
 11
172.936842105263
 21
-135.5
 31
0.0
  0
LINE
  5
179
330
1F
100
AcDbEntity
  8
1
  6
Continuous
 62
     7
100
AcDbLine
 10
177.936842105263
 20
-120.5
 30
0.0
 11
172.936842105263
 21
-120.5
 31
0.0
  0
LINE
  5
17A
330
1F
100
AcDbEntity
  8
1
  6
Continuous
 62
     7
100
AcDbLine
 10
172.936842105263
 20
-173.0
 30
0.0
 11
172.936842105263
 21
-83.0
 31
0.0
  0
LINE
  5
17B
330
1F
100
AcDbEntity
  8
1
  6
Continuous
 62
     7
100
AcDbLine
 10
177.936842105263
 20
-118.0
 30
0.0
 11
177.936842105263
 21
-291.75
 31
0.0
  0
LINE
  5
17C
330
1F
100
AcDbEntity
  8
1
  6
DOT_CENTER
 62
     3
100
AcDbLine
 10
104.936842105263
 20
-67.0
 30
0.0
 11
115.936842105263
 21
-67.0
 31
0.0
  0
LINE
  5
17D
330
1F
100
AcDbEntity
  8
1
  6
DOT_CENTER
 62
     3
100
AcDbLine
 10
104.936842105263
 20
-189.0
 30
0.0
 11
115.936842105263
 21
-189.0
 31
0.0
  0
LINE
  5
17E
330
1F
100
AcDbEntity
  8
1
  6
Continuous
 62
     7
100
AcDbLine
 10
177.936842105263
 20
-118.0
 30
0.0
 11
187.936842105263
 21
-118.0
 31
0.0
  0
LINE
  5
17F
330
1F
100
AcDbEntity
  8
1
  6
Continuous
 62
     7
100
AcDbLine
 10
177.936842105263
 20
-291.75
 30
0.0
 11
187.936842105263
 21
-291.75
 31
0.0
  0
LINE
  5
180
330
1F
100
AcDbEntity
  8
1
  6
Continuous
 62
     7
100
AcDbLine
 10
187.936842105263
 20
-291.75
 30
0.0
 11
187.936842105263
 21
-118.0
 31
0.0
  0
LINE
  5
181
330
1F
100
AcDbEntity
  8
1
  6
DOT_CENTER
 62
     3
100
AcDbLine
 10
182.936842105263
 20
-280.25
 30
0.0
 11
182.936842105263
 21
-285.75
 31
0.0
  0
LINE
  5
182
330
1F
100
AcDbEntity
  8
1
  6
Continuous
 62
     7
100
AcDbLine
 10
190.436842105263
 20
-273.0
 30
0.0
 11
199.436842105263
 21
-273.0
 31
0.0
  0
LINE
  5
183
330
1F
100
AcDbEntity
  8
1
  6
Continuous
 62
     7
100
AcDbLine
 10
190.436842105263
 20
-293.0
 30
0.0
 11
199.436842105263
 21
-293.0
 31
0.0
  0
LINE
  5
184
330
1F
100
AcDbEntity
  8
1
  6
Continuous
 62
     7
100
AcDbLine
 10
199.936842105263
 20
-292.5
 30
0.0
 11
199.936842105263
 21
-273.5
 31
0.0
  0
LINE
  5
185
330
1F
100
AcDbEntity
  8
1
  6
Continuous
 62
     7
100
AcDbLine
 10
276.9803626361456
 20
-275.4850871480621
 30
0.0
 11
201.936842105263
 21
-273.5806451612903
 31
0.0
  0
LINE
  5
186
330
1F
100
AcDbEntity
  8
1
  6
Continuous
 62
     7
100
AcDbLine
 10
201.936842105263
 20
-292.4193548387098
 30
0.0
 11
276.9803626361456
 21
-290.5149128519379
 31
0.0
  0
LINE
  5
187
330
1F
100
AcDbEntity
  8
1
  6
DOT_CENTER
 62
     3
100
AcDbLine
 10
174.936842105263
 20
-283.0
 30
0.0
 11
280.9368421052634
 21
-283.0
 31
0.0
  0
LINE
  5
188
330
1F
100
AcDbEntity
  8
1
  6
Continuous
 62
     7
100
AcDbLine
 10
276.9803626361456
 20
-290.5149128519379
 30
0.0
 11
276.9803626361456
 21
-275.4850871480621
 31
0.0
  0
LINE
  5
189
330
1F
100
AcDbEntity
  8
1
  6
Continuous
 62
     7
100
AcDbLine
 10
189.936842105263
 20
-292.5
 30
0.0
 11
189.936842105263
 21
-273.5
 31
0.0
  0
LINE
  5
18A
330
1F
100
AcDbEntity
  8
1
  6
Continuous
 62
     7
100
AcDbLine
 10
201.936842105263
 20
-292.4193548387098
 30
0.0
 11
201.936842105263
 21
-273.5806451612903
 31
0.0
  0
ARC
  5
18B
330
1F
100
AcDbEntity
  8
1
  6
Continuous
 62
     7
100
AcDbCircle
 10
-82.28947368561516
 20
-128.0
 30
0.0
 40
10.00000000000002
100
AcDbArc
 50
358.1514283547713
 51
181.8485716452287
  0
ARC
  5
18C
330
1F
100
AcDbEntity
  8
1
  6
Continuous
 62
     7
100
AcDbCircle
 10
-82.28947368561516
 20
-128.0
 30
0.0
 40
14.99999999999998
100
AcDbArc
 50
309.9617432505502
 51
230.0382567494499
  0
ARC
  5
18D
330
1F
100
AcDbEntity
  8
1
  6
Continuous
 62
     7
100
AcDbCircle
 10
247.9368421052634
 20
-283.0
 30
0.0
 40
30.0
100
AcDbArc
 50
0.0
 51
14.50692965138799
  0
ARC
  5
18E
330
1F
100
AcDbEntity
  8
1
  6
Continuous
 62
     7
100
AcDbCircle
 10
247.9368421052634
 20
-283.0
 30
0.0
 40
29.99999999999998
100
AcDbArc
 50
345.493070348612
 51
0.0
  0
CIRCLE
  5
18F
330
1F
100
AcDbEntity
  8
1
  6
Continuous
 62
     7
100
AcDbCircle
 10
-124.0394736856152
 20
-67.0
 30
0.0
 40
4.0
  0
CIRCLE
  5
190
330
1F
100
AcDbEntity
  8
1
  6
Continuous
 62
     7
100
AcDbCircle
 10
-40.53947368561516
 20
-67.0
 30
0.0
 40
4.0
  0
CIRCLE
  5
191
330
1F
100
AcDbEntity
  8
1
  6
Continuous
 62
     7
100
AcDbCircle
 10
-40.53947368561516
 20
-189.0
 30
0.0
 40
4.0
  0
CIRCLE
  5
192
330
1F
100
AcDbEntity
  8
1
  6
Continuous
 62
     7
100
AcDbCircle
 10
-124.0394736856152
 20
-189.0
 30
0.0
 40
4.0
  0
CIRCLE
  5
193
330
1F
100
AcDbEntity
  8
1
  6
Continuous
 62
     7
100
AcDbCircle
 10
-82.28947368561516
 20
-283.0
 30
0.0
 40
7.5
  0
CIRCLE
  5
194
330
1F
100
AcDbEntity
  8
1
  6
Continuous
 62
     7
100
AcDbCircle
 10
-82.28947368561516
 20
-283.0
 30
0.0
 40
9.999999999999966
  0
CIRCLE
  5
195
330
1F
100
AcDbEntity
  8
1
  6
Continuous
 62
     7
100
AcDbCircle
 10
182.936842105263
 20
-283.0
 30
0.0
 40
1.75
  0
ARC
  5
196
330
1F
100
AcDbEntity
  8
1
  6
Continuous
 62
     7
100
AcDbCircle
 10
153.4523915474034
 20
-76.5
 30
0.0
 40
1.500000000000024
100
AcDbArc
 50
201.801409486353
 51
270.0
  0
ARC
  5
197
330
1F
100
AcDbEntity
  8
1
  6
Continuous
 62
     7
100
AcDbCircle
 10
124.4212926631227
 20
-76.5
 30
0.0
 40
1.5
100
AcDbArc
 50
269.9999999999962
 51
338.1985905136456
  0
ARC
  5
198
330
1F
100
AcDbEntity
  8
1
  6
Continuous
 62
     7
100
AcDbCircle
 10
128.4523915474034
 20
-74.5
 30
0.0
 40
1.5
100
AcDbArc
 50
90.0
 51
158.1985905136507
  0
ARC
  5
199
330
1F
100
AcDbEntity
  8
1
  6
Continuous
 62
     7
100
AcDbCircle
 10
149.4212926631226
 20
-74.5
 30
0.0
 40
1.499999999999987
100
AcDbArc
 50
21.8014094863495
 51
90.0
  0
ARC
  5
19A
330
1F
100
AcDbEntity
  8
1
  6
Continuous
 62
     7
100
AcDbCircle
 10
-40.53947368561516
 20
-189.25
 30
0.0
 40
10.0
100
AcDbArc
 50
270.0
 51
0.0
  0
ARC
  5
19B
330
1F
100
AcDbEntity
  8
1
  6
Continuous
 62
     7
100
AcDbCircle
 10
-40.53947368561516
 20
-66.75
 30
0.0
 40
9.999999999999996
100
AcDbArc
 50
0.0
 51
90.0
  0
ARC
  5
19C
330
1F
100
AcDbEntity
  8
1
  6
Continuous
 62
     7
100
AcDbCircle
 10
-124.0394736856152
 20
-66.75
 30
0.0
 40
10.0
100
AcDbArc
 50
90.0
 51
180.0
  0
ARC
  5
19D
330
1F
100
AcDbEntity
  8
1
  6
Continuous
 62
     7
100
AcDbCircle
 10
-124.0394736856152
 20
-189.25
 30
0.0
 40
10.0
100
AcDbArc
 50
180.0
 51
270.0
  0
ARC
  5
19E
330
1F
100
AcDbEntity
  8
1
  6
Continuous
 62
     7
100
AcDbCircle
 10
-115.7894736856152
 20
-170.0
 30
0.0
 40
8.0
100
AcDbArc
 50
180.0
 51
270.0
  0
ARC
  5
19F
330
1F
100
AcDbEntity
  8
1
  6
Continuous
 62
     7
100
AcDbCircle
 10
-115.7894736856152
 20
-86.0
 30
0.0
 40
8.0
100
AcDbArc
 50
90.0
 51
180.0
  0
ARC
  5
1A0
330
1F
100
AcDbEntity
  8
1
  6
Continuous
 62
     7
100
AcDbCircle
 10
-48.78947368561516
 20
-86.0
 30
0.0
 40
8.0
100
AcDbArc
 50
0.0
 51
90.0
  0
ARC
  5
1A1
330
1F
100
AcDbEntity
  8
1
  6
Continuous
 62
     7
100
AcDbCircle
 10
-48.78947368561516
 20
-170.0
 30
0.0
 40
8.0
100
AcDbArc
 50
270.0
 51
0.0
  0
ARC
  5
1A2
330
1F
100
AcDbEntity
  8
1
  6
Continuous
 62
     3
100
AcDbCircle
 10
-115.7894736856152
 20
-170.0
 30
0.0
 40
3.0
100
AcDbArc
 50
180.0
 51
270.0
  0
ARC
  5
1A3
330
1F
100
AcDbEntity
  8
1
  6
Continuous
 62
     3
100
AcDbCircle
 10
-48.78947368561516
 20
-170.0
 30
0.0
 40
3.0
100
AcDbArc
 50
270.0
 51
0.0
  0
ARC
  5
1A4
330
1F
100
AcDbEntity
  8
1
  6
Continuous
 62
     3
100
AcDbCircle
 10
-48.78947368561516
 20
-86.0
 30
0.0
 40
3.0
100
AcDbArc
 50
0.0
 51
90.0
  0
ARC
  5
1A5
330
1F
100
AcDbEntity
  8
1
  6
Continuous
 62
     3
100
AcDbCircle
 10
-115.7894736856152
 20
-86.0
 30
0.0
 40
3.0
100
AcDbArc
 50
90.0
 51
180.0
  0
ARC
  5
1A6
330
1F
100
AcDbEntity
  8
1
  6
Continuous
 62
     7
100
AcDbCircle
 10
-64.71506761638163
 20
-74.5
 30
0.0
 40
1.5
100
AcDbArc
 50
90.0
 51
174.9999999999997
  0
ARC
  5
1A7
330
1F
100
AcDbEntity
  8
1
  6
Continuous
 62
     7
100
AcDbCircle
 10
-53.86387975484868
 20
-74.5
 30
0.0
 40
1.500000000000002
100
AcDbArc
 50
5.00000000000033
 51
90.0
  0
ARC
  5
1A8
330
1F
100
AcDbEntity
  8
1
  6
Continuous
 62
     7
100
AcDbCircle
 10
167.936842105263
 20
-83.0
 30
0.0
 40
5.0
100
AcDbArc
 50
0.0
 51
90.0
  0
ARC
  5
1A9
330
1F
100
AcDbEntity
  8
1
  6
Continuous
 62
     7
100
AcDbCircle
 10
167.936842105263
 20
-173.0
 30
0.0
 40
5.0
100
AcDbArc
 50
270.0
 51
0.0
  0
ARC
  5
1AA
330
1F
100
AcDbEntity
  8
1
  6
Continuous
 62
     7
100
AcDbCircle
 10
110.436842105263
 20
-196.75
 30
0.0
 40
2.5
100
AcDbArc
 50
270.0
 51
0.0
  0
ARC
  5
1AB
330
1F
100
AcDbEntity
  8
1
  6
Continuous
 62
     7
100
AcDbCircle
 10
110.436842105263
 20
-59.25
 30
0.0
 40
2.5
100
AcDbArc
 50
0.0
 51
90.0
  0
ARC
  5
1AC
330
1F
100
AcDbEntity
  8
1
  6
Continuous
 62
     7
100
AcDbCircle
 10
190.436842105263
 20
-273.5
 30
0.0
 40
0.5
100
AcDbArc
 50
90.0
 51
180.0
  0
ARC
  5
1AD
330
1F
100
AcDbEntity
  8
1
  6
Continuous
 62
     7
100
AcDbCircle
 10
199.436842105263
 20
-273.5
 30
0.0
 40
0.5
100
AcDbArc
 50
0.0
 51
90.0
  0
ARC
  5
1AE
330
1F
100
AcDbEntity
  8
1
  6
Continuous
 62
     7
100
AcDbCircle
 10
199.436842105263
 20
-292.5
 30
0.0
 40
0.5
100
AcDbArc
 50
270.0
 51
0.0
  0
ARC
  5
1AF
330
1F
100
AcDbEntity
  8
1
  6
Continuous
 62
     7
100
AcDbCircle
 10
190.436842105263
 20
-292.5
 30
0.0
 40
0.5
100
AcDbArc
 50
180.0
 51
270.0
  0
ARC
  5
1B0
330
1F
100
AcDbEntity
  8
1
  6
Continuous
 62
     7
100
AcDbCircle
 10
188.936842105263
 20
-274.5
 30
0.0
 40
1.0
100
AcDbArc
 50
270.0
 51
0.0
  0
ARC
  5
1B1
330
1F
100
AcDbEntity
  8
1
  6
Continuous
 62
     7
100
AcDbCircle
 10
188.936842105263
 20
-274.5
 30
0.0
 40
1.0
100
AcDbArc
 50
180.0
 51
270.0
  0
ARC
  5
1B2
330
1F
100
AcDbEntity
  8
1
  6
Continuous
 62
     7
100
AcDbCircle
 10
188.936842105263
 20
-291.5
 30
0.0
 40
1.0
100
AcDbArc
 50
90.0
 51
180.0
  0
ARC
  5
1B3
330
1F
100
AcDbEntity
  8
1
  6
Continuous
 62
     7
100
AcDbCircle
 10
188.936842105263
 20
-291.5
 30
0.0
 40
1.0
100
AcDbArc
 50
0.0
 51
90.0
  0
ARC
  5
1B4
330
1F
100
AcDbEntity
  8
1
  6
Continuous
 62
     7
100
AcDbCircle
 10
200.936842105263
 20
-291.5
 30
0.0
 40
1.0
100
AcDbArc
 50
90.0
 51
180.0
  0
ARC
  5
1B5
330
1F
100
AcDbEntity
  8
1
  6
Continuous
 62
     7
100
AcDbCircle
 10
200.936842105263
 20
-291.5
 30
0.0
 40
1.0
100
AcDbArc
 50
0.0
 51
90.0
  0
ARC
  5
1B6
330
1F
100
AcDbEntity
  8
1
  6
Continuous
 62
     7
100
AcDbCircle
 10
200.936842105263
 20
-274.5
 30
0.0
 40
1.0
100
AcDbArc
 50
270.0
 51
0.0
  0
ARC
  5
1B7
330
1F
100
AcDbEntity
  8
1
  6
Continuous
 62
     7
100
AcDbCircle
 10
200.936842105263
 20
-274.5
 30
0.0
 40
1.0
100
AcDbArc
 50
180.0
 51
270.0
  0
MTEXT
  5
1B8
330
1F
100
AcDbEntity
  8
1
 62
     2
100
AcDbMText
 10
183.2105263143848
 20
-409.7288617423632
 30
0.0
 40
7.0
 41
0.0
 71
     4
 72
     1
  1
 Al
  7
CONVERTER_12
 73
     1
 44
1.32052821128451
  0
MTEXT
  5
1B9
330
1F
100
AcDbEntity
  8
1
 62
     2
100
AcDbMText
 10
178.2105263143848
 20
-409.7288617423632
 30
0.0
 40
7.0
 41
0.0
 71
     6
 72
     1
  1
Werkstoff/ material/ mat\U+00e9riau:
  7
CONVERTER_12
 73
     1
 44
1.32052821128451
  0
MTEXT
  5
1BA
330
1F
100
AcDbEntity
  8
1
 62
     2
100
AcDbMText
 10
194.0552390963244
 20
-46.2825380644591
 30
0.0
 40
7.0
 41
0.0
 71
     7
 72
     1
  1
Seilaustritt/ rope exit/sortie de c\U+00e2ble\P20x5
  7
CONVERTER_12
 73
     1
 44
1.32052821128451
  0
DIMENSION
  5
1C7
330
1F
100
AcDbEntity
  8
1
100
AcDbDimension
  2
*D4
 10
172.936842105263
 20
-21.87062778388539
 30
0.0
 11
163.436842105263
 21
-15.17062778388539
 31
0.0
 70
    32
  1
<>
 71
     5
 42
-1.0
 53
0.00013888888889
  3
ME10_DIM_10
100
AcDbAlignedDimension
 13
153.936842105263
 23
-78.0
 33
0.0
 14
172.936842105263
 24
-83.0
 34
0.0
100
AcDbRotatedDimension
  0
DIMENSION
  5
1D4
330
1F
100
AcDbEntity
  8
1
100
AcDbDimension
  2
*D5
 10
107.936842105263
 20
-21.87062778388539
 30
0.0
 11
115.936842105263
 21
-15.17062778388539
 31
0.0
 70
    32
  1
<>
 71
     5
 42
-1.0
 53
0.00013888888889
  3
ME10_DIM_11
100
AcDbAlignedDimension
 13
123.936842105263
 23
-78.0
 33
0.0
 14
107.936842105263
 24
-56.75
 34
0.0
100
AcDbRotatedDimension
  0
DIMENSION
  5
1DF
330
1F
100
AcDbEntity
  8
1
100
AcDbDimension
  2
*D6
 10
123.936842105263
 20
-21.87062778388539
 30
0.0
 11
138.936842105263
 21
-15.17062778388539
 31
0.0
 70
    33
  1
<>
 71
     5
 42
-1.0
 53
0.00013888888889
  3
ME10_DIM_12
100
AcDbAlignedDimension
 13
153.936842105263
 23
-78.0
 33
0.0
 14
123.936842105263
 24
-78.0
 34
0.0
  0
DIMENSION
  5
1EA
330
1F
100
AcDbEntity
  8
1
100
AcDbDimension
  2
*D7
 10
128.936842105263
 20
-41.87062778388539
 30
0.0
 11
138.936842105263
 21
-35.17062778388539
 31
0.0
 70
    33
  1
<>
 71
     5
 42
-1.0
 53
0.00013888888889
  3
ME10_DIM_13
100
AcDbAlignedDimension
 13
148.936842105263
 23
-73.0
 33
0.0
 14
128.936842105263
 24
-73.0
 34
0.0
  0
DIMENSION
  5
1F5
330
1F
100
AcDbEntity
  8
1
100
AcDbDimension
  2
*D8
 10
-82.28947368561516
 20
-41.87062778388539
 30
0.0
 11
-70.78947368561516
 21
-35.17062778388539
 31
0.0
 70
    32
  1
<>
 71
     5
 42
-1.0
 53
0.00013888888889
  3
ME10_DIM_14
100
AcDbAlignedDimension
 13
-59.28947368561516
 23
-70.0
 33
0.0
 14
-82.28947368561516
 24
-53.75
 34
0.0
100
AcDbRotatedDimension
  0
DIMENSION
  5
200
330
1F
100
AcDbEntity
  8
1
100
AcDbDimension
  2
*D9
 10
-124.0394736856151
 20
-21.8706277838854
 30
0.0
 11
-82.28947368561518
 21
-14.8206277838854
 31
0.0
 70
    32
  1
<>
 71
     5
 42
-1.0
 53
0.00013888888889
  3
ME10_DIM_15
100
AcDbAlignedDimension
 13
-40.53947368561516
 23
-60.0
 33
0.0
 14
-124.0394736856152
 24
-60.0
 34
0.0
100
AcDbRotatedDimension
  0
DIMENSION
  5
20B
330
1F
100
AcDbEntity
  8
1
100
AcDbDimension
  2
*D10
 10
-134.0394736856152
 20
-1.8706277838854
 30
0.0
 11
-82.28947368561518
 21
5.1793722161146
 31
0.0
 70
    32
  1
<>
 71
     5
 42
-1.0
 53
0.00013888888889
  3
ME10_DIM_16
100
AcDbAlignedDimension
 13
-30.53947368561516
 23
-66.75
 33
0.0
 14
-134.0394736856152
 24
-66.75
 34
0.0
100
AcDbRotatedDimension
  0
DIMENSION
  5
216
330
1F
100
AcDbEntity
  8
1
100
AcDbDimension
  2
*D11
 10
-217.0894736856152
 20
-56.75000000000006
 30
0.0
 11
-224.1394736856152
 21
-127.6297181783471
 31
0.0
 70
    32
  1
<>
 71
     5
 42
-1.0
 53
90.0
  3
ME10_DIM_17
100
AcDbAlignedDimension
 13
-124.0394736856152
 23
-199.25
 33
0.0
 14
-124.0394736856152
 24
-56.75
 34
0.0
 50
90.0
100
AcDbRotatedDimension
  0
DIMENSION
  5
221
330
1F
100
AcDbEntity
  8
1
100
AcDbDimension
  2
*D12
 10
-197.0894736856152
 20
-67.00000000000001
 30
0.0
 11
-203.7894736856152
 21
-128.686142376056
 31
0.0
 70
    32
  1
<>
 71
     5
 42
-1.0
 53
90.0
  3
ME10_DIM_18
100
AcDbAlignedDimension
 13
-131.0394736856152
 23
-189.0
 33
0.0
 14
-131.0394736856152
 24
-67.0
 34
0.0
 50
90.0
100
AcDbRotatedDimension
  0
DIMENSION
  5
22C
330
1F
100
AcDbEntity
  8
1
100
AcDbDimension
  2
*D13
 10
-177.0894736856152
 20
-78.0
 30
0.0
 11
-183.7894736856152
 21
-128.334434054974
 31
0.0
 70
    32
  1
<>
 71
     5
 42
-1.0
 53
90.0
  3
ME10_DIM_19
100
AcDbAlignedDimension
 13
-115.7894736856152
 23
-178.0
 33
0.0
 14
-115.7894736856152
 24
-78.0
 34
0.0
 50
90.0
100
AcDbRotatedDimension
  0
DIMENSION
  5
239
330
1F
100
AcDbEntity
  8
1
100
AcDbDimension
  2
*D14
 10
107.936842105263
 20
-225.95
 30
0.0
 11
94.3423590335069
 21
-219.25
 31
0.0
 70
    32
  1
<>
 71
     5
 42
-1.0
 53
0.00013888888889
  3
ME10_DIM_20
100
AcDbAlignedDimension
 13
112.936842105263
 23
-196.75
 33
0.0
 14
107.936842105263
 24
-199.25
 34
0.0
100
AcDbRotatedDimension
  0
DIMENSION
  5
244
330
1F
100
AcDbEntity
  8
1
100
AcDbDimension
  2
*D15
 10
107.936842105263
 20
-299.7
 30
0.0
 11
140.436842105263
 21
-293.0
 31
0.0
 70
    32
  1
<>
 71
     5
 42
-1.0
 53
0.00013888888889
  3
ME10_DIM_21
100
AcDbAlignedDimension
 13
172.936842105263
 23
-173.0
 33
0.0
 14
107.936842105263
 24
-199.25
 34
0.0
100
AcDbRotatedDimension
  0
DIMENSION
  5
24F
330
1F
100
AcDbEntity
  8
1
100
AcDbDimension
  2
*D16
 10
177.936842105263
 20
-319.7
 30
0.0
 11
143.974391273591
 21
-313.0
 31
0.0
 70
    32
  1
<>
 71
     5
 42
-1.0
 53
0.00013888888889
  3
ME10_DIM_22
100
AcDbAlignedDimension
 13
107.936842105263
 23
-199.25
 33
0.0
 14
177.936842105263
 24
-291.75
 34
0.0
100
AcDbRotatedDimension
  0
DIMENSION
  5
25A
330
1F
100
AcDbEntity
  8
1
100
AcDbDimension
  2
*D17
 10
107.936842105263
 20
-340.05
 30
0.0
 11
196.077080886734
 21
-333.35
 31
0.0
 70
    32
  1
<>
 71
     5
 42
-1.0
 53
0.00013888888889
  3
ME10_DIM_23
100
AcDbAlignedDimension
 13
277.9368421052634
 23
-283.0
 33
0.0
 14
107.936842105263
 24
-199.25
 34
0.0
100
AcDbRotatedDimension
  0
DIMENSION
  5
265
330
1F
100
AcDbEntity
  8
1
100
AcDbDimension
  2
*D18
 10
301.588169836937
 20
-128.0000000000001
 30
0.0
 11
294.888169836937
 21
-208.6970553638448
 31
0.0
 70
    32
  1
<>
 71
     5
 42
-1.0
 53
90.0
  3
ME10_DIM_24
100
AcDbAlignedDimension
 13
280.9368421052634
 23
-283.0
 33
0.0
 14
194.743378418112
 24
-128.0
 34
0.0
 50
90.0
100
AcDbRotatedDimension
  0
INSERT
  5
271
330
1F
100
AcDbEntity
  8
1
100
AcDbBlockReference
  2
*D19
 10
0.0
 20
0.0
 30
0.0
  0
ENDSEC
  0
SECTION
  2
OBJECTS
  0
DICTIONARY
  5
C
330
0
100
AcDbDictionary
281
     1
  3
ACAD_GROUP
350
D
  3
ACAD_LAYOUT
350
1A
  3
ACAD_MATERIAL
350
3B
  3
ACAD_MLEADERSTYLE
350
274
  3
ACAD_MLINESTYLE
350
17
  3
ACAD_PLOTSETTINGS
350
19
  3
ACAD_PLOTSTYLENAME
350
E
  3
ACAD_VISUALSTYLE
350
2A
  3
AcDbVariableDictionary
350
272
  0
DICTIONARY
  5
D
102
{ACAD_REACTORS
330
C
102
}
330
C
100
AcDbDictionary
281
     1
  0
DICTIONARY
  5
1A
102
{ACAD_REACTORS
330
C
102
}
330
C
100
AcDbDictionary
281
     1
  3
Layout1
350
1E
  3
Layout2
350
26
  3
Model
350
22
  0
DICTIONARY
  5
3B
102
{ACAD_REACTORS
330
C
102
}
330
C
100
AcDbDictionary
281
     1
  3
ByBlock
350
3D
  3
ByLayer
350
3C
  3
Global
350
3E
  0
DICTIONARY
  5
274
102
{ACAD_REACTORS
330
C
102
}
330
C
100
AcDbDictionary
281
     1
  0
DICTIONARY
  5
17
102
{ACAD_REACTORS
330
C
102
}
330
C
100
AcDbDictionary
281
     1
  3
Standard
350
18
  0
DICTIONARY
  5
19
102
{ACAD_REACTORS
330
C
102
}
330
C
100
AcDbDictionary
281
     1
  0
ACDBDICTIONARYWDFLT
  5
E
102
{ACAD_REACTORS
330
C
102
}
330
C
100
AcDbDictionary
281
     1
  3
Normal
350
F
100
AcDbDictionaryWithDefault
340
F
  0
DICTIONARY
  5
2A
102
{ACAD_REACTORS
330
C
102
}
330
C
100
AcDbDictionary
281
     1
  3
2dWireframe
350
2F
  3
3D Hidden
350
31
  3
3dWireframe
350
30
  3
Basic
350
32
  3
Brighten
350
36
  3
ColorChange
350
3A
  3
Conceptual
350
34
  3
Dim
350
35
  3
Facepattern
350
39
  3
Flat
350
2B
  3
FlatWithEdges
350
2C
  3
Gouraud
350
2D
  3
GouraudWithEdges
350
2E
  3
Linepattern
350
38
  3
Realistic
350
33
  3
Thicken
350
37
  0
DICTIONARY
  5
272
102
{ACAD_REACTORS
330
C
102
}
330
C
100
AcDbDictionary
281
     1
  3
DIMASSOC
350
275
  3
HIDETEXT
350
276
  0
LAYOUT
  5
1E
102
{ACAD_REACTORS
330
1A
102
}
330
1A
100
AcDbPlotSettings
  1

  2
none_device
  4

  6

 40
0.0
 41
0.0
 42
0.0
 43
0.0
 44
0.0
 45
0.0
 46
0.0
 47
0.0
 48
0.0
 49
0.0
140
0.0
141
0.0
142
1.0
143
1.0
 70
   688
 72
     0
 73
     0
 74
     5
  7

 75
    16
147
1.0
148
0.0
149
0.0
100
AcDbLayout
  1
Layout1
 70
     1
 71
     1
 10
0.0
 20
0.0
 11
12.0
 21
9.0
 12
0.0
 22
0.0
 32
0.0
 14
1.00000000000000E+20
 24
1.00000000000000E+20
 34
1.00000000000000E+20
 15
-1.00000000000000E+20
 25
-1.00000000000000E+20
 35
-1.00000000000000E+20
146
0.0
 13
0.0
 23
0.0
 33
0.0
 16
1.0
 26
0.0
 36
0.0
 17
0.0
 27
1.0
 37
0.0
 76
     0
330
1B
  0
LAYOUT
  5
26
102
{ACAD_REACTORS
330
1A
102
}
330
1A
100
AcDbPlotSettings
  1

  2
none_device
  4

  6

 40
0.0
 41
0.0
 42
0.0
 43
0.0
 44
0.0
 45
0.0
 46
0.0
 47
0.0
 48
0.0
 49
0.0
140
0.0
141
0.0
142
1.0
143
1.0
 70
   688
 72
     0
 73
     0
 74
     5
  7

 75
    16
147
1.0
148
0.0
149
0.0
100
AcDbLayout
  1
Layout2
 70
     1
 71
     2
 10
0.0
 20
0.0
 11
0.0
 21
0.0
 12
0.0
 22
0.0
 32
0.0
 14
0.0
 24
0.0
 34
0.0
 15
0.0
 25
0.0
 35
0.0
146
0.0
 13
0.0
 23
0.0
 33
0.0
 16
1.0
 26
0.0
 36
0.0
 17
0.0
 27
1.0
 37
0.0
 76
     0
330
23
  0
LAYOUT
  5
22
102
{ACAD_REACTORS
330
1A
102
}
330
1A
100
AcDbPlotSettings
  1

  2
none_device
  4

  6

 40
0.0
 41
0.0
 42
0.0
 43
0.0
 44
0.0
 45
0.0
 46
0.0
 47
0.0
 48
0.0
 49
0.0
140
0.0
141
0.0
142
1.0
143
1.0
 70
  1712
 72
     0
 73
     0
 74
     0
  7

 75
     0
147
1.0
148
0.0
149
0.0
100
AcDbLayout
  1
Model
 70
     1
 71
     0
 10
0.0
 20
0.0
 11
12.0
 21
9.0
 12
0.0
 22
0.0
 32
0.0
 14
-398.4995064556085
 24
-549.729907287658
 34
0.0
 15
409.5004935443915
 25
24.3357965599688
 35
0.0
146
0.0
 13
0.0
 23
0.0
 33
0.0
 16
1.0
 26
0.0
 36
0.0
 17
0.0
 27
1.0
 37
0.0
 76
     0
330
1F
331
29
  0
MATERIAL
  5
3D
102
{ACAD_REACTORS
330
3B
102
}
102
{ACAD_XDICTIONARY
360
299
102
}
330
3B
100
AcDbMaterial
  1
ByBlock
  0
MATERIAL
  5
3C
102
{ACAD_REACTORS
330
3B
102
}
102
{ACAD_XDICTIONARY
360
297
102
}
330
3B
100
AcDbMaterial
  1
ByLayer
  0
MATERIAL
  5
3E
102
{ACAD_REACTORS
330
3B
102
}
102
{ACAD_XDICTIONARY
360
29B
102
}
330
3B
100
AcDbMaterial
  1
Global
  0
MLINESTYLE
  5
18
102
{ACAD_REACTORS
330
17
102
}
330
17
100
AcDbMlineStyle
  2
Standard
 70
     0
  3

 62
   256
 51
90.0
 52
90.0
 71
     2
 49
0.5
 62
   256
  6
BYLAYER
 49
-0.5
 62
   256
  6
BYLAYER
  0
ACDBPLACEHOLDER
  5
F
102
{ACAD_REACTORS
330
E
102
}
330
E
  0
VISUALSTYLE
  5
2F
102
{ACAD_REACTORS
330
2A
102
}
102
{ACAD_XDICTIONARY
360
27F
102
}
330
2A
100
AcDbVisualStyle
  2
2dWireframe
 70
     4
 71
     0
 72
     2
 73
     0
 90
        0
 40
-0.6
 41
-30.0
 62
     5
 63
     7
 74
     1
 91
        4
 64
     7
 65
   257
 75
     1
175
     1
 42
1.0
 92
        0
 66
   257
 43
1.0
 76
     1
 77
     6
 78
     2
 67
     7
 79
     5
170
     0
171
     0
290
     0
174
     0
 93
        1
 44
0.0
173
     0
291
     0
 45
0.0
1001
ACAD
1000
AcDbSavedByObjectVersion
1070
     0
  0
VISUALSTYLE
  5
31
102
{ACAD_REACTORS
330
2A
102
}
102
{ACAD_XDICTIONARY
360
283
102
}
330
2A
100
AcDbVisualStyle
  2
3D Hidden
 70
     6
 71
     1
 72
     2
 73
     2
 90
        0
 40
-0.6
 41
-30.0
 62
     5
 63
     7
 74
     2
 91
        2
 64
     7
 65
   257
 75
     2
175
     1
 42
40.0
 92
        0
 66
   257
 43
1.0
 76
     1
 77
     6
 78
     2
 67
     7
 79
     3
170
     0
171
     0
290
     0
174
     0
 93
        1
 44
0.0
173
     0
291
     0
 45
0.0
1001
ACAD
1000
AcDbSavedByObjectVersion
1070
     0
  0
VISUALSTYLE
  5
30
102
{ACAD_REACTORS
330
2A
102
}
102
{ACAD_XDICTIONARY
360
281
102
}
330
2A
100
AcDbVisualStyle
  2
3dWireframe
 70
     5
 71
     0
 72
     2
 73
     0
 90
        0
 40
-0.6
 41
-30.0
 62
     5
 63
     7
 74
     1
 91
        4
 64
     7
 65
   257
 75
     1
175
     1
 42
1.0
 92
        0
 66
   257
 43
1.0
 76
     1
 77
     6
 78
     2
 67
     7
 79
     5
170
     0
171
     0
290
     0
174
     0
 93
        1
 44
0.0
173
     0
291
     0
 45
0.0
1001
ACAD
1000
AcDbSavedByObjectVersion
1070
     0
  0
VISUALSTYLE
  5
32
102
{ACAD_REACTORS
330
2A
102
}
102
{ACAD_XDICTIONARY
360
285
102
}
330
2A
100
AcDbVisualStyle
  2
Basic
 70
     7
 71
     1
 72
     0
 73
     1
 90
        0
 40
-0.6
 41
-30.0
 62
     5
 63
     7
 74
     0
 91
        4
 64
     7
 65
   257
 75
     1
175
     1
 42
1.0
 92
        8
 66
     7
 43
1.0
 76
     1
 77
     6
 78
     2
 67
     7
 79
     5
170
     0
171
     0
290
     0
174
     0
 93
        1
 44
0.0
173
     0
291
     1
 45
0.0
1001
ACAD
1000
AcDbSavedByObjectVersion
1070
     0
  0
VISUALSTYLE
  5
36
102
{ACAD_REACTORS
330
2A
102
}
102
{ACAD_XDICTIONARY
360
28D
102
}
330
2A
100
AcDbVisualStyle
  2
Brighten
 70
    12
 71
     2
 72
     2
 73
     0
 90
        0
 40
-0.6
 41
-30.0
 62
     5
 63
     7
 74
     1
 91
        4
 64
     7
 65
   257
 75
     1
175
     1
 42
1.0
 92
        8
 66
     7
 43
1.0
 76
     1
 77
     6
 78
     2
 67
     7
 79
     5
170
     0
171
     0
290
     0
174
     0
 93
        1
 44
50.0
173
     0
291
     1
 45
0.0
1001
ACAD
1000
AcDbSavedByObjectVersion
1070
     0
  0
VISUALSTYLE
  5
3A
102
{ACAD_REACTORS
330
2A
102
}
102
{ACAD_XDICTIONARY
360
295
102
}
330
2A
100
AcDbVisualStyle
  2
ColorChange
 70
    16
 71
     2
 72
     2
 73
     3
 90
        0
 40
-0.6
 41
-30.0
 62
     5
 63
     8
 74
     1
 91
        4
 64
     7
 65
   257
 75
     1
175
     1
 42
1.0
 92
        8
 66
     8
 43
1.0
 76
     1
 77
     6
 78
     2
 67
     7
 79
     5
170
     0
171
     0
290
     0
174
     0
 93
        1
 44
0.0
173
     0
291
     1
 45
0.0
1001
ACAD
1000
AcDbSavedByObjectVersion
1070
     0
  0
VISUALSTYLE
  5
34
102
{ACAD_REACTORS
330
2A
102
}
102
{ACAD_XDICTIONARY
360
289
102
}
330
2A
100
AcDbVisualStyle
  2
Conceptual
 70
     9
 71
     3
 72
     2
 73
     0
 90
        0
 40
-0.6
 41
-30.0
 62
     5
 63
     7
 74
     2
 91
        2
 64
     7
 65
   257
 75
     1
175
     1
 42
40.0
 92
        8
 66
     7
 43
1.0
 76
     1
 77
     6
 78
     2
 67
     7
 79
     3
170
     0
171
     0
290
     0
174
     0
 93
        1
 44
0.0
173
     0
291
     0
 45
0.0
1001
ACAD
1000
AcDbSavedByObjectVersion
1070
     0
  0
VISUALSTYLE
  5
35
102
{ACAD_REACTORS
330
2A
102
}
102
{ACAD_XDICTIONARY
360
28B
102
}
330
2A
100
AcDbVisualStyle
  2
Dim
 70
    11
 71
     2
 72
     2
 73
     0
 90
        0
 40
-0.6
 41
-30.0
 62
     5
 63
     7
 74
     1
 91
        4
 64
     7
 65
   257
 75
     1
175
     1
 42
1.0
 92
        8
 66
     7
 43
1.0
 76
     1
 77
     6
 78
     2
 67
     7
 79
     5
170
     0
171
     0
290
     0
174
     0
 93
        1
 44
-50.0
173
     0
291
     1
 45
0.0
1001
ACAD
1000
AcDbSavedByObjectVersion
1070
     0
  0
VISUALSTYLE
  5
39
102
{ACAD_REACTORS
330
2A
102
}
102
{ACAD_XDICTIONARY
360
293
102
}
330
2A
100
AcDbVisualStyle
  2
Facepattern
 70
    15
 71
     2
 72
     2
 73
     0
 90
        0
 40
-0.6
 41
-30.0
 62
     5
 63
     7
 74
     1
 91
        4
 64
     7
 65
   257
 75
     1
175
     1
 42
1.0
 92
        8
 66
     7
 43
1.0
 76
     1
 77
     6
 78
     2
 67
     7
 79
     5
170
     0
171
     0
290
     0
174
     0
 93
        1
 44
0.0
173
     0
291
     1
 45
0.0
1001
ACAD
1000
AcDbSavedByObjectVersion
1070
     0
  0
VISUALSTYLE
  5
2B
102
{ACAD_REACTORS
330
2A
102
}
102
{ACAD_XDICTIONARY
360
277
102
}
330
2A
100
AcDbVisualStyle
  2
Flat
 70
     0
 71
     2
 72
     1
 73
     1
 90
        2
 40
-0.6
 41
30.0
 62
     5
 63
     7
 74
     0
 91
        4
 64
     7
 65
   257
 75
     1
175
     1
 42
1.0
 92
        8
 66
     7
 43
1.0
 76
     1
 77
     6
 78
     2
 67
     7
 79
     5
170
     0
171
     0
290
     0
174
     0
 93
       13
 44
0.0
173
     0
291
     1
 45
0.0
1001
ACAD
1000
AcDbSavedByObjectVersion
1070
     0
  0
VISUALSTYLE
  5
2C
102
{ACAD_REACTORS
330
2A
102
}
102
{ACAD_XDICTIONARY
360
279
102
}
330
2A
100
AcDbVisualStyle
  2
FlatWithEdges
 70
     1
 71
     2
 72
     1
 73
     1
 90
        2
 40
-0.6
 41
30.0
 62
     5
 63
     7
 74
     1
 91
        4
 64
     7
 65
   257
 75
     1
175
     1
 42
1.0
 92
        0
 66
   257
 43
1.0
 76
     1
 77
     6
 78
     2
 67
     7
 79
     5
170
     0
171
     0
290
     0
174
     0
 93
       13
 44
0.0
173
     0
291
     1
 45
0.0
1001
ACAD
1000
AcDbSavedByObjectVersion
1070
     0
  0
VISUALSTYLE
  5
2D
102
{ACAD_REACTORS
330
2A
102
}
102
{ACAD_XDICTIONARY
360
27B
102
}
330
2A
100
AcDbVisualStyle
  2
Gouraud
 70
     2
 71
     2
 72
     2
 73
     1
 90
        2
 40
-0.6
 41
30.0
 62
     5
 63
     7
 74
     0
 91
        4
 64
     7
 65
   257
 75
     1
175
     1
 42
1.0
 92
        0
 66
     7
 43
1.0
 76
     1
 77
     6
 78
     2
 67
     7
 79
     5
170
     0
171
     0
290
     0
174
     0
 93
       13
 44
0.0
173
     0
291
     1
 45
0.0
1001
ACAD
1000
AcDbSavedByObjectVersion
1070
     0
  0
VISUALSTYLE
  5
2E
102
{ACAD_REACTORS
330
2A
102
}
102
{ACAD_XDICTIONARY
360
27D
102
}
330
2A
100
AcDbVisualStyle
  2
GouraudWithEdges
 70
     3
 71
     2
 72
     2
 73
     1
 90
        2
 40
-0.6
 41
30.0
 62
     5
 63
     7
 74
     1
 91
        4
 64
     7
 65
   257
 75
     1
175
     1
 42
1.0
 92
        0
 66
   257
 43
1.0
 76
     1
 77
     6
 78
     2
 67
     7
 79
     5
170
     0
171
     0
290
     0
174
     0
 93
       13
 44
0.0
173
     0
291
     1
 45
0.0
1001
ACAD
1000
AcDbSavedByObjectVersion
1070
     0
  0
VISUALSTYLE
  5
38
102
{ACAD_REACTORS
330
2A
102
}
102
{ACAD_XDICTIONARY
360
291
102
}
330
2A
100
AcDbVisualStyle
  2
Linepattern
 70
    14
 71
     2
 72
     2
 73
     0
 90
        0
 40
-0.6
 41
-30.0
 62
     5
 63
     7
 74
     1
 91
        4
 64
     7
 65
   257
 75
     7
175
     7
 42
1.0
 92
        8
 66
     7
 43
1.0
 76
     1
 77
     6
 78
     2
 67
     7
 79
     5
170
     0
171
     0
290
     0
174
     0
 93
        1
 44
0.0
173
     0
291
     1
 45
0.0
1001
ACAD
1000
AcDbSavedByObjectVersion
1070
     0
  0
VISUALSTYLE
  5
33
102
{ACAD_REACTORS
330
2A
102
}
102
{ACAD_XDICTIONARY
360
287
102
}
330
2A
100
AcDbVisualStyle
  2
Realistic
 70
     8
 71
     2
 72
     2
 73
     0
 90
        0
 40
-0.6
 41
-30.0
 62
     5
 63
     7
 74
     1
 91
        0
 64
     7
 65
   257
 75
     1
175
     1
 42
1.0
 92
        8
 66
     8
 43
1.0
 76
     1
 77
     6
 78
     2
 67
     7
 79
     5
170
     0
171
     0
290
     0
174
     0
 93
       13
 44
0.0
173
     0
291
     0
 45
0.0
1001
ACAD
1000
AcDbSavedByObjectVersion
1070
     0
  0
VISUALSTYLE
  5
37
102
{ACAD_REACTORS
330
2A
102
}
102
{ACAD_XDICTIONARY
360
28F
102
}
330
2A
100
AcDbVisualStyle
  2
Thicken
 70
    13
 71
     2
 72
     2
 73
     0
 90
        0
 40
-0.6
 41
-30.0
 62
     5
 63
     7
 74
     1
 91
        4
 64
     7
 65
   257
 75
     1
175
     1
 42
1.0
 92
       12
 66
     7
 43
1.0
 76
     1
 77
     6
 78
     2
 67
     7
 79
     5
170
     0
171
     0
290
     0
174
     0
 93
        1
 44
0.0
173
     0
291
     1
 45
0.0
1001
ACAD
1000
AcDbSavedByObjectVersion
1070
     0
  0
DICTIONARYVAR
  5
275
102
{ACAD_REACTORS
330
272
102
}
330
272
100
DictionaryVariables
280
     0
  1
2
  0
DICTIONARYVAR
  5
276
102
{ACAD_REACTORS
330
272
102
}
330
272
100
DictionaryVariables
280
     0
  1
1
  0
DICTIONARY
  5
299
330
3D
100
AcDbDictionary
280
     1
281
     1
  3
ACAD_XREC_ROUNDTRIP
360
29A
  0
DICTIONARY
  5
297
330
3C
100
AcDbDictionary
280
     1
281
     1
  3
ACAD_XREC_ROUNDTRIP
360
298
  0
DICTIONARY
  5
29B
330
3E
100
AcDbDictionary
280
     1
281
     1
  3
ACAD_XREC_ROUNDTRIP
360
29C
  0
DICTIONARY
  5
27F
330
2F
100
AcDbDictionary
280
     1
281
     1
  3
ACAD_XREC_ROUNDTRIP
360
280
  0
DICTIONARY
  5
283
330
31
100
AcDbDictionary
280
     1
281
     1
  3
ACAD_XREC_ROUNDTRIP
360
284
  0
DICTIONARY
  5
281
330
30
100
AcDbDictionary
280
     1
281
     1
  3
ACAD_XREC_ROUNDTRIP
360
282
  0
DICTIONARY
  5
285
330
32
100
AcDbDictionary
280
     1
281
     1
  3
ACAD_XREC_ROUNDTRIP
360
286
  0
DICTIONARY
  5
28D
330
36
100
AcDbDictionary
280
     1
281
     1
  3
ACAD_XREC_ROUNDTRIP
360
28E
  0
DICTIONARY
  5
295
330
3A
100
AcDbDictionary
280
     1
281
     1
  3
ACAD_XREC_ROUNDTRIP
360
296
  0
DICTIONARY
  5
289
330
34
100
AcDbDictionary
280
     1
281
     1
  3
ACAD_XREC_ROUNDTRIP
360
28A
  0
DICTIONARY
  5
28B
330
35
100
AcDbDictionary
280
     1
281
     1
  3
ACAD_XREC_ROUNDTRIP
360
28C
  0
DICTIONARY
  5
293
330
39
100
AcDbDictionary
280
     1
281
     1
  3
ACAD_XREC_ROUNDTRIP
360
294
  0
DICTIONARY
  5
277
330
2B
100
AcDbDictionary
280
     1
281
     1
  3
ACAD_XREC_ROUNDTRIP
360
278
  0
DICTIONARY
  5
279
330
2C
100
AcDbDictionary
280
     1
281
     1
  3
ACAD_XREC_ROUNDTRIP
360
27A
  0
DICTIONARY
  5
27B
330
2D
100
AcDbDictionary
280
     1
281
     1
  3
ACAD_XREC_ROUNDTRIP
360
27C
  0
DICTIONARY
  5
27D
330
2E
100
AcDbDictionary
280
     1
281
     1
  3
ACAD_XREC_ROUNDTRIP
360
27E
  0
DICTIONARY
  5
291
330
38
100
AcDbDictionary
280
     1
281
     1
  3
ACAD_XREC_ROUNDTRIP
360
292
  0
DICTIONARY
  5
287
330
33
100
AcDbDictionary
280
     1
281
     1
  3
ACAD_XREC_ROUNDTRIP
360
288
  0
DICTIONARY
  5
28F
330
37
100
AcDbDictionary
280
     1
281
     1
  3
ACAD_XREC_ROUNDTRIP
360
290
  0
XRECORD
  5
29A
102
{ACAD_REACTORS
330
299
102
}
330
299
100
AcDbXrecord
280
     1
102
MATERIAL
148
0.0
149
0.0
149
0.0
 93
        0
 94
      127
282
     0
 72
     1
 77
     1
171
     1
175
     1
179
     1
273
     0
  0
XRECORD
  5
298
102
{ACAD_REACTORS
330
297
102
}
330
297
100
AcDbXrecord
280
     1
102
MATERIAL
148
0.0
149
0.0
149
0.0
 93
        0
 94
      127
282
     0
 72
     1
 77
     1
171
     1
175
     1
179
     1
273
     0
  0
XRECORD
  5
29C
102
{ACAD_REACTORS
330
29B
102
}
330
29B
100
AcDbXrecord
280
     1
102
MATERIAL
148
0.0
149
0.0
149
0.0
 93
        0
 94
      127
282
     0
 72
     1
 77
     1
171
     1
175
     1
179
     1
273
     0
  0
XRECORD
  5
280
102
{ACAD_REACTORS
330
27F
102
}
330
27F
100
AcDbXrecord
280
     1
102
RTVSPropertyOp0
 70
     1
102
RTVSPropertyOp1
 70
     1
102
RTVSPropertyOp2
 70
     1
102
RTVSPropertyOp3
 70
     1
102
RTVSPropertyOp4
 70
     1
102
RTVSPropertyOp5
 70
     1
102
RTVSPropertyOp6
 70
     1
102
RTVSPropertyOp7
 70
     1
102
RTVSPropertyOp8
 70
     1
102
RTVSPropertyOp9
 70
     1
102
RTVSPropertyOp10
 70
     1
102
RTVSPropertyOp11
 70
     1
102
RTVSPropertyOp12
 70
     1
102
RTVSPropertyOp13
 70
     1
102
RTVSPropertyOp14
 70
     1
102
RTVSPropertyOp15
 70
     1
102
RTVSPropertyOp16
 70
     1
102
RTVSPropertyOp17
 70
     1
102
RTVSPropertyOp18
 70
     1
102
RTVSPropertyOp19
 70
     1
102
RTVSPropertyOp20
 70
     1
102
RTVSPropertyOp21
 70
     1
102
RTVSPropertyOp22
 70
     1
102
RTVSPropertyOp23
 70
     1
102
RTVSPropertyOp24
 70
     1
102
RTVSPropertyOp25
 70
     1
102
RTVSPropertyOp26
 70
     1
102
RTVSPropertyOp27
 70
     1
102
RTVSPropertyOp28
 70
     1
102
RTVSPropertyOp29
 70
     1
102
RTVSPropertyOp30
 70
     1
102
RTVSPropertyOp31
 70
     1
102
RTVSPropertyOp32
 70
     1
  0
XRECORD
  5
284
102
{ACAD_REACTORS
330
283
102
}
330
283
100
AcDbXrecord
280
     1
102
RTVSPropertyOp0
 70
     1
102
RTVSPropertyOp1
 70
     1
102
RTVSPropertyOp2
 70
     1
102
RTVSPropertyOp3
 70
     1
102
RTVSPropertyOp4
 70
     1
102
RTVSPropertyOp5
 70
     1
102
RTVSPropertyOp6
 70
     1
102
RTVSPropertyOp7
 70
     1
102
RTVSPropertyOp8
 70
     1
102
RTVSPropertyOp9
 70
     1
102
RTVSPropertyOp10
 70
     1
102
RTVSPropertyOp11
 70
     1
102
RTVSPropertyOp12
 70
     1
102
RTVSPropertyOp13
 70
     1
102
RTVSPropertyOp14
 70
     1
102
RTVSPropertyOp15
 70
     1
102
RTVSPropertyOp16
 70
     1
102
RTVSPropertyOp17
 70
     1
102
RTVSPropertyOp18
 70
     1
102
RTVSPropertyOp19
 70
     1
102
RTVSPropertyOp20
 70
     1
102
RTVSPropertyOp21
 70
     1
102
RTVSPropertyOp22
 70
     1
102
RTVSPropertyOp23
 70
     1
102
RTVSPropertyOp24
 70
     1
102
RTVSPropertyOp25
 70
     1
102
RTVSPropertyOp26
 70
     1
102
RTVSPropertyOp27
 70
     1
102
RTVSPropertyOp28
 70
     1
102
RTVSPropertyOp29
 70
     1
102
RTVSPropertyOp30
 70
     1
102
RTVSPropertyOp31
 70
     1
102
RTVSPropertyOp32
 70
     1
  0
XRECORD
  5
282
102
{ACAD_REACTORS
330
281
102
}
330
281
100
AcDbXrecord
280
     1
102
RTVSPropertyOp0
 70
     1
102
RTVSPropertyOp1
 70
     1
102
RTVSPropertyOp2
 70
     1
102
RTVSPropertyOp3
 70
     1
102
RTVSPropertyOp4
 70
     1
102
RTVSPropertyOp5
 70
     1
102
RTVSPropertyOp6
 70
     1
102
RTVSPropertyOp7
 70
     1
102
RTVSPropertyOp8
 70
     1
102
RTVSPropertyOp9
 70
     1
102
RTVSPropertyOp10
 70
     1
102
RTVSPropertyOp11
 70
     1
102
RTVSPropertyOp12
 70
     1
102
RTVSPropertyOp13
 70
     1
102
RTVSPropertyOp14
 70
     1
102
RTVSPropertyOp15
 70
     1
102
RTVSPropertyOp16
 70
     1
102
RTVSPropertyOp17
 70
     1
102
RTVSPropertyOp18
 70
     1
102
RTVSPropertyOp19
 70
     1
102
RTVSPropertyOp20
 70
     1
102
RTVSPropertyOp21
 70
     1
102
RTVSPropertyOp22
 70
     1
102
RTVSPropertyOp23
 70
     1
102
RTVSPropertyOp24
 70
     1
102
RTVSPropertyOp25
 70
     1
102
RTVSPropertyOp26
 70
     1
102
RTVSPropertyOp27
 70
     1
102
RTVSPropertyOp28
 70
     1
102
RTVSPropertyOp29
 70
     1
102
RTVSPropertyOp30
 70
     1
102
RTVSPropertyOp31
 70
     1
102
RTVSPropertyOp32
 70
     1
  0
XRECORD
  5
286
102
{ACAD_REACTORS
330
285
102
}
330
285
100
AcDbXrecord
280
     1
102
RTVSPropertyOp0
 70
     1
102
RTVSPropertyOp1
 70
     1
102
RTVSPropertyOp2
 70
     1
102
RTVSPropertyOp3
 70
     1
102
RTVSPropertyOp4
 70
     1
102
RTVSPropertyOp5
 70
     1
102
RTVSPropertyOp6
 70
     1
102
RTVSPropertyOp7
 70
     1
102
RTVSPropertyOp8
 70
     1
102
RTVSPropertyOp9
 70
     1
102
RTVSPropertyOp10
 70
     1
102
RTVSPropertyOp11
 70
     1
102
RTVSPropertyOp12
 70
     1
102
RTVSPropertyOp13
 70
     1
102
RTVSPropertyOp14
 70
     1
102
RTVSPropertyOp15
 70
     1
102
RTVSPropertyOp16
 70
     1
102
RTVSPropertyOp17
 70
     1
102
RTVSPropertyOp18
 70
     1
102
RTVSPropertyOp19
 70
     1
102
RTVSPropertyOp20
 70
     1
102
RTVSPropertyOp21
 70
     1
102
RTVSPropertyOp22
 70
     1
102
RTVSPropertyOp23
 70
     1
102
RTVSPropertyOp24
 70
     1
102
RTVSPropertyOp25
 70
     1
102
RTVSPropertyOp26
 70
     1
102
RTVSPropertyOp27
 70
     1
102
RTVSPropertyOp28
 70
     1
102
RTVSPropertyOp29
 70
     1
102
RTVSPropertyOp30
 70
     1
102
RTVSPropertyOp31
 70
     1
102
RTVSPropertyOp32
 70
     1
  0
XRECORD
  5
28E
102
{ACAD_REACTORS
330
28D
102
}
330
28D
100
AcDbXrecord
280
     1
102
RTVSPropertyOp0
 70
     1
102
RTVSPropertyOp1
 70
     1
102
RTVSPropertyOp2
 70
     1
102
RTVSPropertyOp3
 70
     1
102
RTVSPropertyOp4
 70
     1
102
RTVSPropertyOp5
 70
     1
102
RTVSPropertyOp6
 70
     1
102
RTVSPropertyOp7
 70
     1
102
RTVSPropertyOp8
 70
     1
102
RTVSPropertyOp9
 70
     1
102
RTVSPropertyOp10
 70
     1
102
RTVSPropertyOp11
 70
     1
102
RTVSPropertyOp12
 70
     1
102
RTVSPropertyOp13
 70
     1
102
RTVSPropertyOp14
 70
     1
102
RTVSPropertyOp15
 70
     1
102
RTVSPropertyOp16
 70
     1
102
RTVSPropertyOp17
 70
     1
102
RTVSPropertyOp18
 70
     1
102
RTVSPropertyOp19
 70
     1
102
RTVSPropertyOp20
 70
     1
102
RTVSPropertyOp21
 70
     1
102
RTVSPropertyOp22
 70
     1
102
RTVSPropertyOp23
 70
     1
102
RTVSPropertyOp24
 70
     1
102
RTVSPropertyOp25
 70
     1
102
RTVSPropertyOp26
 70
     1
102
RTVSPropertyOp27
 70
     1
102
RTVSPropertyOp28
 70
     1
102
RTVSPropertyOp29
 70
     1
102
RTVSPropertyOp30
 70
     1
102
RTVSPropertyOp31
 70
     1
102
RTVSPropertyOp32
 70
     1
  0
XRECORD
  5
296
102
{ACAD_REACTORS
330
295
102
}
330
295
100
AcDbXrecord
280
     1
102
RTVSPropertyOp0
 70
     1
102
RTVSPropertyOp1
 70
     1
102
RTVSPropertyOp2
 70
     1
102
RTVSPropertyOp3
 70
     1
102
RTVSPropertyOp4
 70
     1
102
RTVSPropertyOp5
 70
     1
102
RTVSPropertyOp6
 70
     1
102
RTVSPropertyOp7
 70
     1
102
RTVSPropertyOp8
 70
     1
102
RTVSPropertyOp9
 70
     1
102
RTVSPropertyOp10
 70
     1
102
RTVSPropertyOp11
 70
     1
102
RTVSPropertyOp12
 70
     1
102
RTVSPropertyOp13
 70
     1
102
RTVSPropertyOp14
 70
     1
102
RTVSPropertyOp15
 70
     1
102
RTVSPropertyOp16
 70
     1
102
RTVSPropertyOp17
 70
     1
102
RTVSPropertyOp18
 70
     1
102
RTVSPropertyOp19
 70
     1
102
RTVSPropertyOp20
 70
     1
102
RTVSPropertyOp21
 70
     1
102
RTVSPropertyOp22
 70
     1
102
RTVSPropertyOp23
 70
     1
102
RTVSPropertyOp24
 70
     1
102
RTVSPropertyOp25
 70
     1
102
RTVSPropertyOp26
 70
     1
102
RTVSPropertyOp27
 70
     1
102
RTVSPropertyOp28
 70
     1
102
RTVSPropertyOp29
 70
     1
102
RTVSPropertyOp30
 70
     1
102
RTVSPropertyOp31
 70
     1
102
RTVSPropertyOp32
 70
     1
  0
XRECORD
  5
28A
102
{ACAD_REACTORS
330
289
102
}
330
289
100
AcDbXrecord
280
     1
102
RTVSPropertyOp0
 70
     1
102
RTVSPropertyOp1
 70
     1
102
RTVSPropertyOp2
 70
     1
102
RTVSPropertyOp3
 70
     1
102
RTVSPropertyOp4
 70
     1
102
RTVSPropertyOp5
 70
     1
102
RTVSPropertyOp6
 70
     1
102
RTVSPropertyOp7
 70
     1
102
RTVSPropertyOp8
 70
     1
102
RTVSPropertyOp9
 70
     1
102
RTVSPropertyOp10
 70
     1
102
RTVSPropertyOp11
 70
     1
102
RTVSPropertyOp12
 70
     1
102
RTVSPropertyOp13
 70
     1
102
RTVSPropertyOp14
 70
     1
102
RTVSPropertyOp15
 70
     1
102
RTVSPropertyOp16
 70
     1
102
RTVSPropertyOp17
 70
     1
102
RTVSPropertyOp18
 70
     1
102
RTVSPropertyOp19
 70
     1
102
RTVSPropertyOp20
 70
     1
102
RTVSPropertyOp21
 70
     1
102
RTVSPropertyOp22
 70
     1
102
RTVSPropertyOp23
 70
     1
102
RTVSPropertyOp24
 70
     1
102
RTVSPropertyOp25
 70
     1
102
RTVSPropertyOp26
 70
     1
102
RTVSPropertyOp27
 70
     1
102
RTVSPropertyOp28
 70
     1
102
RTVSPropertyOp29
 70
     1
102
RTVSPropertyOp30
 70
     1
102
RTVSPropertyOp31
 70
     1
102
RTVSPropertyOp32
 70
     1
  0
XRECORD
  5
28C
102
{ACAD_REACTORS
330
28B
102
}
330
28B
100
AcDbXrecord
280
     1
102
RTVSPropertyOp0
 70
     1
102
RTVSPropertyOp1
 70
     1
102
RTVSPropertyOp2
 70
     1
102
RTVSPropertyOp3
 70
     1
102
RTVSPropertyOp4
 70
     1
102
RTVSPropertyOp5
 70
     1
102
RTVSPropertyOp6
 70
     1
102
RTVSPropertyOp7
 70
     1
102
RTVSPropertyOp8
 70
     1
102
RTVSPropertyOp9
 70
     1
102
RTVSPropertyOp10
 70
     1
102
RTVSPropertyOp11
 70
     1
102
RTVSPropertyOp12
 70
     1
102
RTVSPropertyOp13
 70
     1
102
RTVSPropertyOp14
 70
     1
102
RTVSPropertyOp15
 70
     1
102
RTVSPropertyOp16
 70
     1
102
RTVSPropertyOp17
 70
     1
102
RTVSPropertyOp18
 70
     1
102
RTVSPropertyOp19
 70
     1
102
RTVSPropertyOp20
 70
     1
102
RTVSPropertyOp21
 70
     1
102
RTVSPropertyOp22
 70
     1
102
RTVSPropertyOp23
 70
     1
102
RTVSPropertyOp24
 70
     1
102
RTVSPropertyOp25
 70
     1
102
RTVSPropertyOp26
 70
     1
102
RTVSPropertyOp27
 70
     1
102
RTVSPropertyOp28
 70
     1
102
RTVSPropertyOp29
 70
     1
102
RTVSPropertyOp30
 70
     1
102
RTVSPropertyOp31
 70
     1
102
RTVSPropertyOp32
 70
     1
  0
XRECORD
  5
294
102
{ACAD_REACTORS
330
293
102
}
330
293
100
AcDbXrecord
280
     1
102
RTVSPropertyOp0
 70
     1
102
RTVSPropertyOp1
 70
     1
102
RTVSPropertyOp2
 70
     1
102
RTVSPropertyOp3
 70
     1
102
RTVSPropertyOp4
 70
     1
102
RTVSPropertyOp5
 70
     1
102
RTVSPropertyOp6
 70
     1
102
RTVSPropertyOp7
 70
     1
102
RTVSPropertyOp8
 70
     1
102
RTVSPropertyOp9
 70
     1
102
RTVSPropertyOp10
 70
     1
102
RTVSPropertyOp11
 70
     1
102
RTVSPropertyOp12
 70
     1
102
RTVSPropertyOp13
 70
     1
102
RTVSPropertyOp14
 70
     1
102
RTVSPropertyOp15
 70
     1
102
RTVSPropertyOp16
 70
     1
102
RTVSPropertyOp17
 70
     1
102
RTVSPropertyOp18
 70
     1
102
RTVSPropertyOp19
 70
     1
102
RTVSPropertyOp20
 70
     1
102
RTVSPropertyOp21
 70
     1
102
RTVSPropertyOp22
 70
     1
102
RTVSPropertyOp23
 70
     1
102
RTVSPropertyOp24
 70
     1
102
RTVSPropertyOp25
 70
     1
102
RTVSPropertyOp26
 70
     1
102
RTVSPropertyOp27
 70
     1
102
RTVSPropertyOp28
 70
     1
102
RTVSPropertyOp29
 70
     1
102
RTVSPropertyOp30
 70
     1
102
RTVSPropertyOp31
 70
     1
102
RTVSPropertyOp32
 70
     1
  0
XRECORD
  5
278
102
{ACAD_REACTORS
330
277
102
}
330
277
100
AcDbXrecord
280
     1
102
RTVSPropertyOp0
 70
     1
102
RTVSPropertyOp1
 70
     1
102
RTVSPropertyOp2
 70
     1
102
RTVSPropertyOp3
 70
     1
102
RTVSPropertyOp4
 70
     1
102
RTVSPropertyOp5
 70
     1
102
RTVSPropertyOp6
 70
     1
102
RTVSPropertyOp7
 70
     1
102
RTVSPropertyOp8
 70
     1
102
RTVSPropertyOp9
 70
     1
102
RTVSPropertyOp10
 70
     1
102
RTVSPropertyOp11
 70
     1
102
RTVSPropertyOp12
 70
     1
102
RTVSPropertyOp13
 70
     1
102
RTVSPropertyOp14
 70
     1
102
RTVSPropertyOp15
 70
     1
102
RTVSPropertyOp16
 70
     1
102
RTVSPropertyOp17
 70
     1
102
RTVSPropertyOp18
 70
     1
102
RTVSPropertyOp19
 70
     1
102
RTVSPropertyOp20
 70
     1
102
RTVSPropertyOp21
 70
     1
102
RTVSPropertyOp22
 70
     1
102
RTVSPropertyOp23
 70
     1
102
RTVSPropertyOp24
 70
     1
102
RTVSPropertyOp25
 70
     1
102
RTVSPropertyOp26
 70
     1
102
RTVSPropertyOp27
 70
     1
102
RTVSPropertyOp28
 70
     1
102
RTVSPropertyOp29
 70
     1
102
RTVSPropertyOp30
 70
     1
102
RTVSPropertyOp31
 70
     1
102
RTVSPropertyOp32
 70
     1
  0
XRECORD
  5
27A
102
{ACAD_REACTORS
330
279
102
}
330
279
100
AcDbXrecord
280
     1
102
RTVSPropertyOp0
 70
     1
102
RTVSPropertyOp1
 70
     1
102
RTVSPropertyOp2
 70
     1
102
RTVSPropertyOp3
 70
     1
102
RTVSPropertyOp4
 70
     1
102
RTVSPropertyOp5
 70
     1
102
RTVSPropertyOp6
 70
     1
102
RTVSPropertyOp7
 70
     1
102
RTVSPropertyOp8
 70
     1
102
RTVSPropertyOp9
 70
     1
102
RTVSPropertyOp10
 70
     1
102
RTVSPropertyOp11
 70
     1
102
RTVSPropertyOp12
 70
     1
102
RTVSPropertyOp13
 70
     1
102
RTVSPropertyOp14
 70
     1
102
RTVSPropertyOp15
 70
     1
102
RTVSPropertyOp16
 70
     1
102
RTVSPropertyOp17
 70
     1
102
RTVSPropertyOp18
 70
     1
102
RTVSPropertyOp19
 70
     1
102
RTVSPropertyOp20
 70
     1
102
RTVSPropertyOp21
 70
     1
102
RTVSPropertyOp22
 70
     1
102
RTVSPropertyOp23
 70
     1
102
RTVSPropertyOp24
 70
     1
102
RTVSPropertyOp25
 70
     1
102
RTVSPropertyOp26
 70
     1
102
RTVSPropertyOp27
 70
     1
102
RTVSPropertyOp28
 70
     1
102
RTVSPropertyOp29
 70
     1
102
RTVSPropertyOp30
 70
     1
102
RTVSPropertyOp31
 70
     1
102
RTVSPropertyOp32
 70
     1
  0
XRECORD
  5
27C
102
{ACAD_REACTORS
330
27B
102
}
330
27B
100
AcDbXrecord
280
     1
102
RTVSPropertyOp0
 70
     1
102
RTVSPropertyOp1
 70
     1
102
RTVSPropertyOp2
 70
     1
102
RTVSPropertyOp3
 70
     1
102
RTVSPropertyOp4
 70
     1
102
RTVSPropertyOp5
 70
     1
102
RTVSPropertyOp6
 70
     1
102
RTVSPropertyOp7
 70
     1
102
RTVSPropertyOp8
 70
     1
102
RTVSPropertyOp9
 70
     1
102
RTVSPropertyOp10
 70
     1
102
RTVSPropertyOp11
 70
     1
102
RTVSPropertyOp12
 70
     1
102
RTVSPropertyOp13
 70
     1
102
RTVSPropertyOp14
 70
     1
102
RTVSPropertyOp15
 70
     1
102
RTVSPropertyOp16
 70
     1
102
RTVSPropertyOp17
 70
     1
102
RTVSPropertyOp18
 70
     1
102
RTVSPropertyOp19
 70
     1
102
RTVSPropertyOp20
 70
     1
102
RTVSPropertyOp21
 70
     1
102
RTVSPropertyOp22
 70
     1
102
RTVSPropertyOp23
 70
     1
102
RTVSPropertyOp24
 70
     1
102
RTVSPropertyOp25
 70
     1
102
RTVSPropertyOp26
 70
     1
102
RTVSPropertyOp27
 70
     1
102
RTVSPropertyOp28
 70
     1
102
RTVSPropertyOp29
 70
     1
102
RTVSPropertyOp30
 70
     1
102
RTVSPropertyOp31
 70
     1
102
RTVSPropertyOp32
 70
     1
  0
XRECORD
  5
27E
102
{ACAD_REACTORS
330
27D
102
}
330
27D
100
AcDbXrecord
280
     1
102
RTVSPropertyOp0
 70
     1
102
RTVSPropertyOp1
 70
     1
102
RTVSPropertyOp2
 70
     1
102
RTVSPropertyOp3
 70
     1
102
RTVSPropertyOp4
 70
     1
102
RTVSPropertyOp5
 70
     1
102
RTVSPropertyOp6
 70
     1
102
RTVSPropertyOp7
 70
     1
102
RTVSPropertyOp8
 70
     1
102
RTVSPropertyOp9
 70
     1
102
RTVSPropertyOp10
 70
     1
102
RTVSPropertyOp11
 70
     1
102
RTVSPropertyOp12
 70
     1
102
RTVSPropertyOp13
 70
     1
102
RTVSPropertyOp14
 70
     1
102
RTVSPropertyOp15
 70
     1
102
RTVSPropertyOp16
 70
     1
102
RTVSPropertyOp17
 70
     1
102
RTVSPropertyOp18
 70
     1
102
RTVSPropertyOp19
 70
     1
102
RTVSPropertyOp20
 70
     1
102
RTVSPropertyOp21
 70
     1
102
RTVSPropertyOp22
 70
     1
102
RTVSPropertyOp23
 70
     1
102
RTVSPropertyOp24
 70
     1
102
RTVSPropertyOp25
 70
     1
102
RTVSPropertyOp26
 70
     1
102
RTVSPropertyOp27
 70
     1
102
RTVSPropertyOp28
 70
     1
102
RTVSPropertyOp29
 70
     1
102
RTVSPropertyOp30
 70
     1
102
RTVSPropertyOp31
 70
     1
102
RTVSPropertyOp32
 70
     1
  0
XRECORD
  5
292
102
{ACAD_REACTORS
330
291
102
}
330
291
100
AcDbXrecord
280
     1
102
RTVSPropertyOp0
 70
     1
102
RTVSPropertyOp1
 70
     1
102
RTVSPropertyOp2
 70
     1
102
RTVSPropertyOp3
 70
     1
102
RTVSPropertyOp4
 70
     1
102
RTVSPropertyOp5
 70
     1
102
RTVSPropertyOp6
 70
     1
102
RTVSPropertyOp7
 70
     1
102
RTVSPropertyOp8
 70
     1
102
RTVSPropertyOp9
 70
     1
102
RTVSPropertyOp10
 70
     1
102
RTVSPropertyOp11
 70
     1
102
RTVSPropertyOp12
 70
     1
102
RTVSPropertyOp13
 70
     1
102
RTVSPropertyOp14
 70
     1
102
RTVSPropertyOp15
 70
     1
102
RTVSPropertyOp16
 70
     1
102
RTVSPropertyOp17
 70
     1
102
RTVSPropertyOp18
 70
     1
102
RTVSPropertyOp19
 70
     1
102
RTVSPropertyOp20
 70
     1
102
RTVSPropertyOp21
 70
     1
102
RTVSPropertyOp22
 70
     1
102
RTVSPropertyOp23
 70
     1
102
RTVSPropertyOp24
 70
     1
102
RTVSPropertyOp25
 70
     1
102
RTVSPropertyOp26
 70
     1
102
RTVSPropertyOp27
 70
     1
102
RTVSPropertyOp28
 70
     1
102
RTVSPropertyOp29
 70
     1
102
RTVSPropertyOp30
 70
     1
102
RTVSPropertyOp31
 70
     1
102
RTVSPropertyOp32
 70
     1
  0
XRECORD
  5
288
102
{ACAD_REACTORS
330
287
102
}
330
287
100
AcDbXrecord
280
     1
102
RTVSPropertyOp0
 70
     1
102
RTVSPropertyOp1
 70
     1
102
RTVSPropertyOp2
 70
     1
102
RTVSPropertyOp3
 70
     1
102
RTVSPropertyOp4
 70
     1
102
RTVSPropertyOp5
 70
     1
102
RTVSPropertyOp6
 70
     1
102
RTVSPropertyOp7
 70
     1
102
RTVSPropertyOp8
 70
     1
102
RTVSPropertyOp9
 70
     1
102
RTVSPropertyOp10
 70
     1
102
RTVSPropertyOp11
 70
     1
102
RTVSPropertyOp12
 70
     1
102
RTVSPropertyOp13
 70
     1
102
RTVSPropertyOp14
 70
     1
102
RTVSPropertyOp15
 70
     1
102
RTVSPropertyOp16
 70
     1
102
RTVSPropertyOp17
 70
     1
102
RTVSPropertyOp18
 70
     1
102
RTVSPropertyOp19
 70
     1
102
RTVSPropertyOp20
 70
     1
102
RTVSPropertyOp21
 70
     1
102
RTVSPropertyOp22
 70
     1
102
RTVSPropertyOp23
 70
     1
102
RTVSPropertyOp24
 70
     1
102
RTVSPropertyOp25
 70
     1
102
RTVSPropertyOp26
 70
     1
102
RTVSPropertyOp27
 70
     1
102
RTVSPropertyOp28
 70
     1
102
RTVSPropertyOp29
 70
     1
102
RTVSPropertyOp30
 70
     1
102
RTVSPropertyOp31
 70
     1
102
RTVSPropertyOp32
 70
     1
  0
XRECORD
  5
290
102
{ACAD_REACTORS
330
28F
102
}
330
28F
100
AcDbXrecord
280
     1
102
RTVSPropertyOp0
 70
     1
102
RTVSPropertyOp1
 70
     1
102
RTVSPropertyOp2
 70
     1
102
RTVSPropertyOp3
 70
     1
102
RTVSPropertyOp4
 70
     1
102
RTVSPropertyOp5
 70
     1
102
RTVSPropertyOp6
 70
     1
102
RTVSPropertyOp7
 70
     1
102
RTVSPropertyOp8
 70
     1
102
RTVSPropertyOp9
 70
     1
102
RTVSPropertyOp10
 70
     1
102
RTVSPropertyOp11
 70
     1
102
RTVSPropertyOp12
 70
     1
102
RTVSPropertyOp13
 70
     1
102
RTVSPropertyOp14
 70
     1
102
RTVSPropertyOp15
 70
     1
102
RTVSPropertyOp16
 70
     1
102
RTVSPropertyOp17
 70
     1
102
RTVSPropertyOp18
 70
     1
102
RTVSPropertyOp19
 70
     1
102
RTVSPropertyOp20
 70
     1
102
RTVSPropertyOp21
 70
     1
102
RTVSPropertyOp22
 70
     1
102
RTVSPropertyOp23
 70
     1
102
RTVSPropertyOp24
 70
     1
102
RTVSPropertyOp25
 70
     1
102
RTVSPropertyOp26
 70
     1
102
RTVSPropertyOp27
 70
     1
102
RTVSPropertyOp28
 70
     1
102
RTVSPropertyOp29
 70
     1
102
RTVSPropertyOp30
 70
     1
102
RTVSPropertyOp31
 70
     1
102
RTVSPropertyOp32
 70
     1
  0
ENDSEC
  0
EOF
