  0
SECTION
  2
HEADER
  9
$ACADVER
  1
AC1015
  9
$ACADMAINTVER
 70
     6
  9
$DWGCODEPAGE
  3
ANSI_1252
  9
$INSBASE
 10
0.0
 20
0.0
 30
0.0
  9
$EXTMIN
 10
-398.4995064584169
 20
-529.7291123573231
 30
0.0
  9
$EXTMAX
 10
409.5004935415831
 20
44.3365914903037
 30
0.0
  9
$LIMMIN
 10
0.0
 20
0.0
  9
$LIMMAX
 10
12.0
 20
9.0
  9
$ORTHOMODE
 70
     0
  9
$REGENMODE
 70
     1
  9
$FILLMODE
 70
     1
  9
$QTEXTMODE
 70
     0
  9
$MIRRTEXT
 70
     1
  9
$LTSCALE
 40
1.0
  9
$ATTMODE
 70
     1
  9
$TEXTSIZE
 40
0.2
  9
$TRACEWID
 40
0.05
  9
$TEXTSTYLE
  7
Standard
  9
$CLAYER
  8
0
  9
$CELTYPE
  6
ByLayer
  9
$CECOLOR
 62
   256
  9
$CELTSCALE
 40
1.0
  9
$DISPSILH
 70
     0
  9
$DIMSCALE
 40
1.0
  9
$DIMASZ
 40
0.18
  9
$DIMEXO
 40
0.0625
  9
$DIMDLI
 40
0.38
  9
$DIMRND
 40
0.0
  9
$DIMDLE
 40
0.0
  9
$DIMEXE
 40
0.18
  9
$DIMTP
 40
0.0
  9
$DIMTM
 40
0.0
  9
$DIMTXT
 40
0.18
  9
$DIMCEN
 40
0.09
  9
$DIMTSZ
 40
0.0
  9
$DIMTOL
 70
     0
  9
$DIMLIM
 70
     0
  9
$DIMTIH
 70
     1
  9
$DIMTOH
 70
     1
  9
$DIMSE1
 70
     0
  9
$DIMSE2
 70
     0
  9
$DIMTAD
 70
     0
  9
$DIMZIN
 70
     0
  9
$DIMBLK
  1

  9
$DIMASO
 70
     1
  9
$DIMSHO
 70
     1
  9
$DIMPOST
  1

  9
$DIMAPOST
  1

  9
$DIMALT
 70
     0
  9
$DIMALTD
 70
     2
  9
$DIMALTF
 40
25.4
  9
$DIMLFAC
 40
1.0
  9
$DIMTOFL
 70
     0
  9
$DIMTVP
 40
0.0
  9
$DIMTIX
 70
     0
  9
$DIMSOXD
 70
     0
  9
$DIMSAH
 70
     0
  9
$DIMBLK1
  1

  9
$DIMBLK2
  1

  9
$DIMSTYLE
  2
Standard
  9
$DIMCLRD
 70
     0
  9
$DIMCLRE
 70
     0
  9
$DIMCLRT
 70
     0
  9
$DIMTFAC
 40
1.0
  9
$DIMGAP
 40
0.09
  9
$DIMJUST
 70
     0
  9
$DIMSD1
 70
     0
  9
$DIMSD2
 70
     0
  9
$DIMTOLJ
 70
     1
  9
$DIMTZIN
 70
     0
  9
$DIMALTZ
 70
     0
  9
$DIMALTTZ
 70
     0
  9
$DIMUPT
 70
     0
  9
$DIMDEC
 70
     4
  9
$DIMTDEC
 70
     4
  9
$DIMALTU
 70
     2
  9
$DIMALTTD
 70
     2
  9
$DIMTXSTY
  7
Standard
  9
$DIMAUNIT
 70
     0
  9
$DIMADEC
 70
     0
  9
$DIMALTRND
 40
0.0
  9
$DIMAZIN
 70
     0
  9
$DIMDSEP
 70
    46
  9
$DIMATFIT
 70
     3
  9
$DIMFRAC
 70
     0
  9
$DIMLDRBLK
  1

  9
$DIMLUNIT
 70
     2
  9
$DIMLWD
 70
    -2
  9
$DIMLWE
 70
    -2
  9
$DIMTMOVE
 70
     0
  9
$LUNITS
 70
     2
  9
$LUPREC
 70
     4
  9
$SKETCHINC
 40
0.1
  9
$FILLETRAD
 40
0.5
  9
$AUNITS
 70
     0
  9
$AUPREC
 70
     0
  9
$MENU
  1
.
  9
$ELEVATION
 40
0.0
  9
$PELEVATION
 40
0.0
  9
$THICKNESS
 40
0.0
  9
$LIMCHECK
 70
     0
  9
$CHAMFERA
 40
0.5
  9
$CHAMFERB
 40
0.5
  9
$CHAMFERC
 40
1.0
  9
$CHAMFERD
 40
0.0
  9
$SKPOLY
 70
     0
  9
$TDCREATE
 40
2458374.636619028
  9
$TDUCREATE
 40
2458374.553285694
  9
$TDUPDATE
 40
2458374.636619745
  9
$TDUUPDATE
 40
2458374.553286412
  9
$TDINDWG
 40
0.0000000116
  9
$TDUSRTIMER
 40
0.0000000116
  9
$USRTIMER
 70
     1
  9
$ANGBASE
 50
0.0
  9
$ANGDIR
 70
     0
  9
$PDMODE
 70
     0
  9
$PDSIZE
 40
0.0
  9
$PLINEWID
 40
0.0
  9
$SPLFRAME
 70
     0
  9
$SPLINETYPE
 70
     6
  9
$SPLINESEGS
 70
     8
  9
$HANDSEED
  5
2B0
  9
$SURFTAB1
 70
     6
  9
$SURFTAB2
 70
     6
  9
$SURFTYPE
 70
     6
  9
$SURFU
 70
     6
  9
$SURFV
 70
     6
  9
$UCSBASE
  2

  9
$UCSNAME
  2

  9
$UCSORG
 10
0.0
 20
0.0
 30
0.0
  9
$UCSXDIR
 10
1.0
 20
0.0
 30
0.0
  9
$UCSYDIR
 10
0.0
 20
1.0
 30
0.0
  9
$UCSORTHOREF
  2

  9
$UCSORTHOVIEW
 70
     0
  9
$UCSORGTOP
 10
0.0
 20
0.0
 30
0.0
  9
$UCSORGBOTTOM
 10
0.0
 20
0.0
 30
0.0
  9
$UCSORGLEFT
 10
0.0
 20
0.0
 30
0.0
  9
$UCSORGRIGHT
 10
0.0
 20
0.0
 30
0.0
  9
$UCSORGFRONT
 10
0.0
 20
0.0
 30
0.0
  9
$UCSORGBACK
 10
0.0
 20
0.0
 30
0.0
  9
$PUCSBASE
  2

  9
$PUCSNAME
  2

  9
$PUCSORG
 10
0.0
 20
0.0
 30
0.0
  9
$PUCSXDIR
 10
1.0
 20
0.0
 30
0.0
  9
$PUCSYDIR
 10
0.0
 20
1.0
 30
0.0
  9
$PUCSORTHOREF
  2

  9
$PUCSORTHOVIEW
 70
     0
  9
$PUCSORGTOP
 10
0.0
 20
0.0
 30
0.0
  9
$PUCSORGBOTTOM
 10
0.0
 20
0.0
 30
0.0
  9
$PUCSORGLEFT
 10
0.0
 20
0.0
 30
0.0
  9
$PUCSORGRIGHT
 10
0.0
 20
0.0
 30
0.0
  9
$PUCSORGFRONT
 10
0.0
 20
0.0
 30
0.0
  9
$PUCSORGBACK
 10
0.0
 20
0.0
 30
0.0
  9
$USERI1
 70
     0
  9
$USERI2
 70
     0
  9
$USERI3
 70
     0
  9
$USERI4
 70
     0
  9
$USERI5
 70
     0
  9
$USERR1
 40
18.1
  9
$USERR2
 40
0.0
  9
$USERR3
 40
0.0
  9
$USERR4
 40
0.0
  9
$USERR5
 40
0.0
  9
$WORLDVIEW
 70
     1
  9
$SHADEDGE
 70
     3
  9
$SHADEDIF
 70
    70
  9
$TILEMODE
 70
     1
  9
$MAXACTVP
 70
    64
  9
$PINSBASE
 10
0.0
 20
0.0
 30
0.0
  9
$PLIMCHECK
 70
     0
  9
$PEXTMIN
 10
1.00000000000000E+20
 20
1.00000000000000E+20
 30
1.00000000000000E+20
  9
$PEXTMAX
 10
-1.00000000000000E+20
 20
-1.00000000000000E+20
 30
-1.00000000000000E+20
  9
$PLIMMIN
 10
0.0
 20
0.0
  9
$PLIMMAX
 10
12.0
 20
9.0
  9
$UNITMODE
 70
     0
  9
$VISRETAIN
 70
     1
  9
$PLINEGEN
 70
     0
  9
$PSLTSCALE
 70
     1
  9
$TREEDEPTH
 70
  3020
  9
$CMLSTYLE
  2
Standard
  9
$CMLJUST
 70
     0
  9
$CMLSCALE
 40
1.0
  9
$PROXYGRAPHICS
 70
     1
  9
$MEASUREMENT
 70
     1
  9
$CELWEIGHT
370
    -1
  9
$ENDCAPS
280
     0
  9
$JOINSTYLE
280
     0
  9
$LWDISPLAY
290
     0
  9
$INSUNITS
 70
     1
  9
$HYPERLINKBASE
  1

  9
$STYLESHEET
  1

  9
$XEDIT
290
     1
  9
$CEPSNTYPE
380
     0
  9
$PSTYLEMODE
290
     1
  9
$FINGERPRINTGUID
  2
{FEFA541C-9A2F-4691-9CB8-327F67956DBC}
  9
$VERSIONGUID
  2
{FAEB1C32-E019-11D5-929B-00C0DF256EC4}
  9
$EXTNAMES
290
     1
  9
$PSVPSCALE
 40
0.0
  9
$OLESTARTUP
290
     0
  0
ENDSEC
  0
SECTION
  2
CLASSES
  0
CLASS
  1
ACDBDICTIONARYWDFLT
  2
AcDbDictionaryWithDefault
  3
ObjectDBX Classes
 90
        0
280
     0
281
     0
  0
CLASS
  1
VISUALSTYLE
  2
AcDbVisualStyle
  3
ObjectDBX Classes
 90
     4095
280
     0
281
     0
  0
CLASS
  1
MATERIAL
  2
AcDbMaterial
  3
ObjectDBX Classes
 90
     1153
280
     0
281
     0
  0
CLASS
  1
DICTIONARYVAR
  2
AcDbDictionaryVar
  3
ObjectDBX Classes
 90
        0
280
     0
281
     0
  0
CLASS
  1
ACDBPLACEHOLDER
  2
AcDbPlaceHolder
  3
ObjectDBX Classes
 90
        0
280
     0
281
     0
  0
CLASS
  1
LAYOUT
  2
AcDbLayout
  3
ObjectDBX Classes
 90
        0
280
     0
281
     0
  0
ENDSEC
  0
SECTION
  2
TABLES
  0
TABLE
  2
VPORT
  5
8
330
0
100
AcDbSymbolTable
 70
     1
  0
VPORT
  5
29
330
8
100
AcDbSymbolTableRecord
100
AcDbViewportTableRecord
  2
*Active
 70
     0
 10
0.0
 20
0.0
 11
1.0
 21
1.0
 12
5.50049354158313
 22
-242.6962604335097
 13
0.0
 23
0.0
 14
0.5
 24
0.5
 15
0.5
 25
0.5
 16
0.0
 26
0.0
 36
1.0
 17
0.0
 27
0.0
 37
0.0
 40
631.4722742323895
 41
1.60267857142857
 42
50.0
 43
0.0
 44
0.0
 50
0.0
 51
0.0
 71
     0
 72
   100
 73
     1
 74
     3
 75
     0
 76
     0
 77
     0
 78
     0
281
     0
 65
     1
110
0.0
120
0.0
130
0.0
111
1.0
121
0.0
131
0.0
112
0.0
122
1.0
132
0.0
 79
     0
146
0.0
  0
ENDTAB
  0
TABLE
  2
LTYPE
  5
5
330
0
100
AcDbSymbolTable
 70
     8
  0
LTYPE
  5
14
330
5
100
AcDbSymbolTableRecord
100
AcDbLinetypeTableRecord
  2
ByBlock
 70
     0
  3

 72
    65
 73
     0
 40
0.0
  0
LTYPE
  5
15
330
5
100
AcDbSymbolTableRecord
100
AcDbLinetypeTableRecord
  2
ByLayer
 70
     0
  3

 72
    65
 73
     0
 40
0.0
  0
LTYPE
  5
16
330
5
100
AcDbSymbolTableRecord
100
AcDbLinetypeTableRecord
  2
Continuous
 70
     0
  3
Solid line
 72
    65
 73
     0
 40
0.0
  0
LTYPE
  5
3F
330
5
100
AcDbSymbolTableRecord
100
AcDbLinetypeTableRecord
  2
DASHED
 70
     0
  3
Dashed
 72
    65
 73
     2
 40
15.0
 49
7.0
 74
     0
 49
-8.0
 74
     0
  0
LTYPE
  5
40
330
5
100
AcDbSymbolTableRecord
100
AcDbLinetypeTableRecord
  2
DOTTED
 70
     0
  3
Dotted
 72
    65
 73
     2
 40
1.0
 49
0.0
 74
     0
 49
-1.0
 74
     0
  0
LTYPE
  5
41
330
5
100
AcDbSymbolTableRecord
100
AcDbLinetypeTableRecord
  2
DOT_CENTER
 70
     0
  3
Dot_Center
 72
    65
 73
     4
 40
14.0
 49
12.0
 74
     0
 49
-1.0
 74
     0
 49
0.0
 74
     0
 49
-1.0
 74
     0
  0
LTYPE
  5
42
330
5
100
AcDbSymbolTableRecord
100
AcDbLinetypeTableRecord
  2
LONG_DASHED
 70
     0
  3
Long_Dashed
 72
    65
 73
     2
 40
15.0
 49
10.0
 74
     0
 49
-5.0
 74
     0
  0
LTYPE
  5
43
330
5
100
AcDbSymbolTableRecord
100
AcDbLinetypeTableRecord
  2
DASH_CENTER
 70
     0
  3
Dash_Center
 72
    65
 73
     4
 40
14.0
 49
11.0
 74
     0
 49
-1.0
 74
     0
 49
1.0
 74
     0
 49
-1.0
 74
     0
  0
LTYPE
  5
44
330
5
100
AcDbSymbolTableRecord
100
AcDbLinetypeTableRecord
  2
PHANTOM
 70
     0
  3
Phantom
 72
    65
 73
     6
 40
13.0
 49
10.0
 74
     0
 49
-1.0
 74
     0
 49
0.0
 74
     0
 49
-1.0
 74
     0
 49
0.0
 74
     0
 49
-1.0
 74
     0
  0
LTYPE
  5
45
330
5
100
AcDbSymbolTableRecord
100
AcDbLinetypeTableRecord
  2
CENTER_DASH_DASH
 70
     0
  3
Center_Dash_Dash
 72
    65
 73
     6
 40
14.0
 49
9.0
 74
     0
 49
-1.0
 74
     0
 49
1.0
 74
     0
 49
-1.0
 74
     0
 49
1.0
 74
     0
 49
-1.0
 74
     0
  0
ENDTAB
  0
TABLE
  2
LAYER
  5
2
330
0
100
AcDbSymbolTable
 70
     3
  0
LAYER
  5
10
330
2
100
AcDbSymbolTableRecord
100
AcDbLayerTableRecord
  2
0
 70
     0
 62
     7
  6
Continuous
370
    -3
390
F
  0
LAYER
  5
46
330
2
100
AcDbSymbolTableRecord
100
AcDbLayerTableRecord
  2
1
 70
     0
 62
     7
  6
Continuous
370
    -3
390
F
  0
LAYER
  5
47
330
2
100
AcDbSymbolTableRecord
100
AcDbLayerTableRecord
  2
10
 70
     0
 62
     7
  6
Continuous
370
    -3
390
F
  0
ENDTAB
  0
TABLE
  2
STYLE
  5
3
330
0
100
AcDbSymbolTable
 70
    10
  0
STYLE
  5
11
330
3
100
AcDbSymbolTableRecord
100
AcDbTextStyleTableRecord
  2
Standard
 70
     0
 40
0.0
 41
1.0
 50
0.0
 71
     0
 42
0.2
  3
txt
  4

  0
STYLE
  5
90
330
3
100
AcDbSymbolTableRecord
100
AcDbTextStyleTableRecord
  2
CONVERTER_11
 70
     0
 40
0.0
 41
0.765
 50
0.0
 71
     0
 42
0.2
  3
txt.shx
  4

  0
STYLE
  5
94
330
3
100
AcDbSymbolTableRecord
100
AcDbTextStyleTableRecord
  2
CONVERTER_12
 70
     0
 40
0.0
 41
0.9
 50
0.0
 71
     0
 42
0.2
  3
txt.shx
  4

  0
STYLE
  5
96
330
3
100
AcDbSymbolTableRecord
100
AcDbTextStyleTableRecord
  2
CONVERTER_13
 70
     0
 40
0.0
 41
0.81
 50
10.0
 71
     0
 42
0.2
  3
txt.shx
  4

  0
STYLE
  5
A2
330
3
100
AcDbSymbolTableRecord
100
AcDbTextStyleTableRecord
  2
CONVERTER_14
 70
     0
 40
0.0
 41
0.81
 50
0.0
 71
     0
 42
0.2
  3
txt.shx
  4

  0
STYLE
  5
A4
330
3
100
AcDbSymbolTableRecord
100
AcDbTextStyleTableRecord
  2
CONVERTER_15
 70
     0
 40
0.0
 41
0.99
 50
0.0
 71
     0
 42
0.2
  3
txt.shx
  4

  0
STYLE
  5
13E
330
3
100
AcDbSymbolTableRecord
100
AcDbTextStyleTableRecord
  2
CONVERTER_16
 70
     0
 40
0.0
 41
0.744
 50
0.0
 71
     0
 42
0.2
  3
simplex.shx
  4

  0
STYLE
  5
140
330
3
100
AcDbSymbolTableRecord
100
AcDbTextStyleTableRecord
  2
CONVERTER_17
 70
     0
 40
0.0
 41
0.62
 50
0.0
 71
     0
 42
0.2
  3
simplex.shx
  4

  0
STYLE
  5
143
330
3
100
AcDbSymbolTableRecord
100
AcDbTextStyleTableRecord
  2
CONVERTER_18
 70
     0
 40
0.0
 41
0.57
 50
0.0
 71
     0
 42
0.2
  3
simplex.shx
  4

  0
STYLE
  5
145
330
3
100
AcDbSymbolTableRecord
100
AcDbTextStyleTableRecord
  2
CONVERTER_19
 70
     0
 40
0.0
 41
0.45
 50
0.0
 71
     0
 42
0.2
  3
txt.shx
  4

  0
ENDTAB
  0
TABLE
  2
VIEW
  5
6
330
0
100
AcDbSymbolTable
 70
     0
  0
ENDTAB
  0
TABLE
  2
UCS
  5
7
330
0
100
AcDbSymbolTable
 70
     0
  0
ENDTAB
  0
TABLE
  2
APPID
  5
9
330
0
100
AcDbSymbolTable
 70
     1
  0
APPID
  5
12
330
9
100
AcDbSymbolTableRecord
100
AcDbRegAppTableRecord
  2
ACAD
 70
     0
  0
ENDTAB
  0
TABLE
  2
DIMSTYLE
  5
A
330
0
100
AcDbSymbolTable
 70
    17
100
AcDbDimStyleTable
  0
DIMSTYLE
105
27
330
A
100
AcDbSymbolTableRecord
100
AcDbDimStyleTableRecord
  2
Standard
 70
     0
178
     0
340
11
  0
DIMSTYLE
105
1CE
102
{ACAD_REACTORS
330
1CF
102
}
330
A
100
AcDbSymbolTableRecord
100
AcDbDimStyleTableRecord
  2
ME10_DIM_10
 70
     0
 41
7.0
 42
0.0
 44
4.0
 73
     0
 74
     0
 77
     1
 78
     8
140
7.0
147
3.2
172
     1
173
     1
174
     1
175
     1
176
     3
177
     3
271
     2
178
     2
271
     2
340
94
  0
DIMSTYLE
105
1D9
102
{ACAD_REACTORS
330
1DA
102
}
330
A
100
AcDbSymbolTableRecord
100
AcDbDimStyleTableRecord
  2
ME10_DIM_11
 70
     0
 41
7.0
 42
0.0
 44
4.0
 73
     0
 74
     0
 77
     1
 78
     8
140
7.0
147
3.2
172
     1
173
     1
174
     1
175
     1
176
     3
177
     3
271
     2
178
     2
271
     2
340
94
  0
DIMSTYLE
105
1E4
102
{ACAD_REACTORS
330
1E5
102
}
330
A
100
AcDbSymbolTableRecord
100
AcDbDimStyleTableRecord
  2
ME10_DIM_12
 70
     0
 41
7.0
 42
0.0
 44
4.0
 73
     0
 74
     0
 77
     1
 78
     8
140
7.0
147
3.2
172
     1
173
     1
174
     1
175
     1
176
     3
177
     3
271
     2
178
     2
271
     2
340
94
  0
DIMSTYLE
105
1EF
102
{ACAD_REACTORS
330
1F0
102
}
330
A
100
AcDbSymbolTableRecord
100
AcDbDimStyleTableRecord
  2
ME10_DIM_13
 70
     0
 41
7.0
 42
0.0
 44
4.0
 73
     0
 74
     0
 77
     1
 78
     8
140
7.0
147
3.2
172
     1
173
     1
174
     1
175
     1
176
     3
177
     3
271
     2
178
     2
271
     2
340
94
  0
DIMSTYLE
105
1FC
102
{ACAD_REACTORS
330
1FD
102
}
330
A
100
AcDbSymbolTableRecord
100
AcDbDimStyleTableRecord
  2
ME10_DIM_14
 70
     0
 41
7.0
 42
0.0
 44
4.0
 73
     0
 74
     0
 77
     1
 78
     8
140
7.0
147
3.2
172
     1
173
     1
174
     1
175
     1
176
     3
177
     3
271
     2
178
     2
271
     2
340
94
  0
DIMSTYLE
105
207
102
{ACAD_REACTORS
330
208
102
}
330
A
100
AcDbSymbolTableRecord
100
AcDbDimStyleTableRecord
  2
ME10_DIM_15
 70
     0
 41
7.0
 42
0.0
 44
4.0
 73
     0
 74
     0
 77
     1
 78
     8
140
7.0
147
3.2
172
     1
173
     1
174
     1
175
     1
176
     3
177
     3
271
     2
178
     2
271
     2
340
94
  0
DIMSTYLE
105
212
102
{ACAD_REACTORS
330
213
102
}
330
A
100
AcDbSymbolTableRecord
100
AcDbDimStyleTableRecord
  2
ME10_DIM_16
 70
     0
 41
7.0
 42
0.0
 44
4.0
 73
     0
 74
     0
 77
     1
 78
     8
140
7.0
147
3.2
172
     1
173
     1
174
     1
175
     1
176
     3
177
     3
271
     2
178
     2
271
     2
340
94
  0
DIMSTYLE
105
21D
102
{ACAD_REACTORS
330
21E
102
}
330
A
100
AcDbSymbolTableRecord
100
AcDbDimStyleTableRecord
  2
ME10_DIM_17
 70
     0
 41
7.0
 42
0.0
 44
4.0
 73
     0
 74
     0
 77
     1
 78
     8
140
7.0
147
3.2
172
     1
173
     1
174
     1
175
     1
176
     3
177
     3
271
     2
178
     2
271
     2
340
94
  0
DIMSTYLE
105
228
102
{ACAD_REACTORS
330
229
102
}
330
A
100
AcDbSymbolTableRecord
100
AcDbDimStyleTableRecord
  2
ME10_DIM_18
 70
     0
 41
7.0
 42
0.0
 44
4.0
 73
     0
 74
     0
 77
     1
 78
     8
140
7.0
147
3.2
172
     1
173
     1
174
     1
175
     1
176
     3
177
     3
271
     2
178
     2
271
     2
340
94
  0
DIMSTYLE
105
233
102
{ACAD_REACTORS
330
234
102
}
330
A
100
AcDbSymbolTableRecord
100
AcDbDimStyleTableRecord
  2
ME10_DIM_19
 70
     0
 41
7.0
 42
0.0
 44
4.0
 73
     0
 74
     0
 77
     1
 78
     8
140
7.0
147
3.2
172
     1
173
     1
174
     1
175
     1
176
     3
177
     3
271
     2
178
     2
271
     2
340
94
  0
DIMSTYLE
105
23E
102
{ACAD_REACTORS
330
23F
102
}
330
A
100
AcDbSymbolTableRecord
100
AcDbDimStyleTableRecord
  2
ME10_DIM_20
 70
     0
 41
7.0
 42
0.0
 44
4.0
 73
     0
 74
     0
 77
     1
 78
     8
140
7.0
147
3.2
172
     1
173
     1
174
     1
175
     1
176
     3
177
     3
271
     2
178
     2
271
     2
340
94
  0
DIMSTYLE
105
249
102
{ACAD_REACTORS
330
24A
102
}
330
A
100
AcDbSymbolTableRecord
100
AcDbDimStyleTableRecord
  2
ME10_DIM_21
 70
     0
 41
7.0
 42
0.0
 44
4.0
 73
     0
 74
     0
 77
     1
 78
     8
140
7.0
147
3.2
172
     1
173
     1
174
     1
175
     1
176
     3
177
     3
271
     2
178
     2
271
     2
340
94
  0
DIMSTYLE
105
254
102
{ACAD_REACTORS
330
255
102
}
330
A
100
AcDbSymbolTableRecord
100
AcDbDimStyleTableRecord
  2
ME10_DIM_22
 70
     0
 41
7.0
 42
0.0
 44
4.0
 73
     0
 74
     0
 77
     1
 78
     8
140
7.0
147
3.2
172
     1
173
     1
174
     1
175
     1
176
     3
177
     3
271
     2
178
     2
271
     2
340
94
  0
DIMSTYLE
105
25F
102
{ACAD_REACTORS
330
260
102
}
330
A
100
AcDbSymbolTableRecord
100
AcDbDimStyleTableRecord
  2
ME10_DIM_23
 70
     0
 41
7.0
 42
0.0
 44
4.0
 73
     0
 74
     0
 77
     1
 78
     8
140
7.0
147
3.2
172
     1
173
     1
174
     1
175
     1
176
     3
177
     3
271
     2
178
     2
271
     2
340
94
  0
DIMSTYLE
105
26C
102
{ACAD_REACTORS
330
26D
102
}
330
A
100
AcDbSymbolTableRecord
100
AcDbDimStyleTableRecord
  2
ME10_DIM_24
 70
     0
 41
7.0
 42
0.0
 44
4.0
 73
     0
 74
     0
 77
     1
 78
     8
140
7.0
147
3.2
172
     1
173
     1
174
     1
175
     1
176
     3
177
     3
271
     2
178
     2
271
     2
340
94
  0
DIMSTYLE
105
277
102
{ACAD_REACTORS
330
278
102
}
330
A
100
AcDbSymbolTableRecord
100
AcDbDimStyleTableRecord
  2
ME10_DIM_25
 70
     0
 41
7.0
 42
0.0
 44
4.0
 73
     0
 74
     0
 77
     1
 78
     8
140
7.0
147
3.2
172
     1
173
     1
174
     1
175
     1
176
     3
177
     3
271
     2
178
     2
271
     2
340
94
  0
ENDTAB
  0
TABLE
  2
BLOCK_RECORD
  5
1
330
0
100
AcDbSymbolTable
 70
    21
  0
BLOCK_RECORD
  5
1F
330
1
100
AcDbSymbolTableRecord
100
AcDbBlockTableRecord
  2
*Model_Space
340
22
  0
BLOCK_RECORD
  5
1B
330
1
100
AcDbSymbolTableRecord
100
AcDbBlockTableRecord
  2
*Paper_Space
340
1E
  0
BLOCK_RECORD
  5
23
330
1
100
AcDbSymbolTableRecord
100
AcDbBlockTableRecord
  2
*Paper_Space0
340
26
  0
BLOCK_RECORD
  5
48
330
1
100
AcDbSymbolTableRecord
100
AcDbBlockTableRecord
  2
_schriftfeld_2000
340
0
102
{BLKREFS
331
4C
102
}
  0
BLOCK_RECORD
  5
4B
330
1
100
AcDbSymbolTableRecord
100
AcDbBlockTableRecord
  2
_tb_frame_A3_2000
340
0
102
{BLKREFS
331
52
102
}
  0
BLOCK_RECORD
  5
4F
330
1
100
AcDbSymbolTableRecord
100
AcDbBlockTableRecord
  2
_TD_WA50_de_gb_fr
340
0
102
{BLKREFS
331
53
102
}
  0
BLOCK_RECORD
  5
1C3
330
1
100
AcDbSymbolTableRecord
100
AcDbBlockTableRecord
  2
*D4
340
0
  0
BLOCK_RECORD
  5
1D0
330
1
100
AcDbSymbolTableRecord
100
AcDbBlockTableRecord
  2
*D5
340
0
  0
BLOCK_RECORD
  5
1DB
330
1
100
AcDbSymbolTableRecord
100
AcDbBlockTableRecord
  2
*D6
340
0
  0
BLOCK_RECORD
  5
1E6
330
1
100
AcDbSymbolTableRecord
100
AcDbBlockTableRecord
  2
*D7
340
0
  0
BLOCK_RECORD
  5
1F1
330
1
100
AcDbSymbolTableRecord
100
AcDbBlockTableRecord
  2
*D8
340
0
  0
BLOCK_RECORD
  5
1FE
330
1
100
AcDbSymbolTableRecord
100
AcDbBlockTableRecord
  2
*D9
340
0
  0
BLOCK_RECORD
  5
209
330
1
100
AcDbSymbolTableRecord
100
AcDbBlockTableRecord
  2
*D10
340
0
  0
BLOCK_RECORD
  5
214
330
1
100
AcDbSymbolTableRecord
100
AcDbBlockTableRecord
  2
*D11
340
0
  0
BLOCK_RECORD
  5
21F
330
1
100
AcDbSymbolTableRecord
100
AcDbBlockTableRecord
  2
*D12
340
0
  0
BLOCK_RECORD
  5
22A
330
1
100
AcDbSymbolTableRecord
100
AcDbBlockTableRecord
  2
*D13
340
0
  0
BLOCK_RECORD
  5
235
330
1
100
AcDbSymbolTableRecord
100
AcDbBlockTableRecord
  2
*D14
340
0
  0
BLOCK_RECORD
  5
240
330
1
100
AcDbSymbolTableRecord
100
AcDbBlockTableRecord
  2
*D15
340
0
  0
BLOCK_RECORD
  5
24B
330
1
100
AcDbSymbolTableRecord
100
AcDbBlockTableRecord
  2
*D16
340
0
  0
BLOCK_RECORD
  5
256
330
1
100
AcDbSymbolTableRecord
100
AcDbBlockTableRecord
  2
*D17
340
0
  0
BLOCK_RECORD
  5
261
330
1
100
AcDbSymbolTableRecord
100
AcDbBlockTableRecord
  2
*D18
340
0
  0
BLOCK_RECORD
  5
26E
330
1
100
AcDbSymbolTableRecord
100
AcDbBlockTableRecord
  2
*D19
340
0
  0
BLOCK_RECORD
  5
279
330
1
100
AcDbSymbolTableRecord
100
AcDbBlockTableRecord
  2
*D20
340
0
102
{BLKREFS
331
284
102
}
  0
ENDTAB
  0
ENDSEC
  0
SECTION
  2
BLOCKS
  0
BLOCK
  5
20
330
1F
100
AcDbEntity
  8
0
100
AcDbBlockBegin
  2
*Model_Space
 70
     0
 10
0.0
 20
0.0
 30
0.0
  3
*Model_Space
  1

  0
ENDBLK
  5
21
330
1F
100
AcDbEntity
  8
0
100
AcDbBlockEnd
  0
BLOCK
  5
1C
330
1B
100
AcDbEntity
 67
     1
  8
0
100
AcDbBlockBegin
  2
*Paper_Space
 70
     0
 10
0.0
 20
0.0
 30
0.0
  3
*Paper_Space
  1

  0
ENDBLK
  5
1D
330
1B
100
AcDbEntity
 67
     1
  8
0
100
AcDbBlockEnd
  0
BLOCK
  5
24
330
23
100
AcDbEntity
  8
0
100
AcDbBlockBegin
  2
*Paper_Space0
 70
     0
 10
0.0
 20
0.0
 30
0.0
  3
*Paper_Space0
  1

  0
ENDBLK
  5
25
330
23
100
AcDbEntity
  8
0
100
AcDbBlockEnd
  0
BLOCK
  5
49
330
48
100
AcDbEntity
  8
0
100
AcDbBlockBegin
  2
_schriftfeld_2000
 70
     0
 10
199.7499954836119
 20
-259.8645561786619
 30
0.0
  3
_schriftfeld_2000
  1

  0
LINE
  5
54
330
48
100
AcDbEntity
  8
1
  6
Continuous
 62
     2
100
AcDbLine
 10
109.7499954836119
 20
-233.7645561786619
 30
0.0
 11
9.74999548361194
 21
-233.7645561786619
 31
0.0
  0
LINE
  5
55
330
48
100
AcDbEntity
  8
1
  6
Continuous
 62
     2
100
AcDbLine
 10
162.7499954836125
 20
-220.8645561786619
 30
0.0
 11
162.7499954836125
 21
-205.8645561786619
 31
0.0
  0
LINE
  5
56
102
{ACAD_REACTORS
330
E9
102
}
330
48
100
AcDbEntity
  8
1
  6
Continuous
 62
     2
100
AcDbLine
 10
68.01273718340883
 20
-251.7527812780527
 30
0.0
 11
70.27547888320603
 21
-249.4900395782557
 31
0.0
  0
LINE
  5
57
102
{ACAD_REACTORS
330
E9
102
}
330
48
100
AcDbEntity
  8
1
  6
Continuous
 62
     2
100
AcDbLine
 10
68.01273718340883
 20
-251.7527812780527
 30
0.0
 11
70.27547888320603
 21
-251.7527812780526
 31
0.0
  0
LINE
  5
58
102
{ACAD_REACTORS
330
E9
102
}
330
48
100
AcDbEntity
  8
1
  6
Continuous
 62
     2
100
AcDbLine
 10
70.27547888320603
 20
-249.4900395782557
 30
0.0
 11
70.27547888320603
 21
-251.7527812780526
 31
0.0
  0
LINE
  5
59
102
{ACAD_REACTORS
330
EA
102
}
330
48
100
AcDbEntity
  8
1
  6
Continuous
 62
     2
100
AcDbLine
 10
78.00096228279995
 20
-243.3645561786618
 30
0.0
 11
65.74999548361194
 21
-243.3645561786619
 31
0.0
  0
LINE
  5
5A
102
{ACAD_REACTORS
330
EA
102
}
330
48
100
AcDbEntity
  8
1
  6
Continuous
 62
     2
100
AcDbLine
 10
65.74999548361194
 20
-243.3645561786619
 30
0.0
 11
65.74999548361194
 21
-251.7527812780526
 31
0.0
  0
LINE
  5
5B
102
{ACAD_REACTORS
330
EA
102
}
330
48
100
AcDbEntity
  8
1
  6
Continuous
 62
     2
100
AcDbLine
 10
65.74999548361194
 20
-251.7527812780526
 30
0.0
 11
68.01273718340883
 21
-251.7527812780527
 31
0.0
  0
LINE
  5
5C
102
{ACAD_REACTORS
330
EA
102
}
330
48
100
AcDbEntity
  8
1
  6
Continuous
 62
     2
100
AcDbLine
 10
65.74999548361194
 20
-249.4900395782557
 30
0.0
 11
68.01273718340883
 21
-251.7527812780527
 31
0.0
  0
LINE
  5
5D
102
{ACAD_REACTORS
330
EA
102
}
330
48
100
AcDbEntity
  8
1
  6
Continuous
 62
     2
100
AcDbLine
 10
71.87547888320594
 20
-243.3645561786618
 30
0.0
 11
65.74999548361194
 21
-249.4900395782557
 31
0.0
  0
LINE
  5
5E
102
{ACAD_REACTORS
330
EA
102
}
330
48
100
AcDbEntity
  8
1
  6
Continuous
 62
     2
100
AcDbLine
 10
78.00096228279995
 20
-249.4900395782557
 30
0.0
 11
71.87547888320594
 21
-243.3645561786618
 31
0.0
  0
LINE
  5
5F
102
{ACAD_REACTORS
330
EA
102
}
330
48
100
AcDbEntity
  8
1
  6
Continuous
 62
     2
100
AcDbLine
 10
75.73822058300294
 20
-251.7527812780527
 30
0.0
 11
78.00096228279995
 21
-249.4900395782557
 31
0.0
  0
LINE
  5
60
102
{ACAD_REACTORS
330
EA
102
}
330
48
100
AcDbEntity
  8
1
  6
Continuous
 62
     2
100
AcDbLine
 10
75.73822058300294
 20
-251.7527812780527
 30
0.0
 11
78.00096228279995
 21
-251.7527812780526
 31
0.0
  0
LINE
  5
61
102
{ACAD_REACTORS
330
EA
102
}
330
48
100
AcDbEntity
  8
1
  6
Continuous
 62
     2
100
AcDbLine
 10
78.00096228279995
 20
-251.7527812780526
 30
0.0
 11
78.00096228279995
 21
-243.3645561786618
 31
0.0
  0
LINE
  5
62
102
{ACAD_REACTORS
330
EB
102
}
330
48
100
AcDbEntity
  8
1
  6
Continuous
 62
     2
100
AcDbLine
 10
73.47547888320614
 20
-249.4900395782557
 30
0.0
 11
75.73822058300294
 21
-251.7527812780527
 31
0.0
  0
LINE
  5
63
102
{ACAD_REACTORS
330
EB
102
}
330
48
100
AcDbEntity
  8
1
  6
Continuous
 62
     2
100
AcDbLine
 10
73.47547888320614
 20
-251.7527812780526
 30
0.0
 11
73.47547888320614
 21
-249.4900395782557
 31
0.0
  0
LINE
  5
64
102
{ACAD_REACTORS
330
EB
102
}
330
48
100
AcDbEntity
  8
1
  6
Continuous
 62
     2
100
AcDbLine
 10
73.47547888320614
 20
-251.7527812780526
 30
0.0
 11
75.73822058300294
 21
-251.7527812780527
 31
0.0
  0
LINE
  5
65
330
48
100
AcDbEntity
  8
1
  6
Continuous
 62
     4
100
AcDbLine
 10
199.7499954836123
 20
-205.8645561786617
 30
0.0
 11
199.7499954836119
 21
-259.8645561786619
 31
0.0
  0
LINE
  5
66
330
48
100
AcDbEntity
  8
1
  6
Continuous
 62
     7
100
AcDbLine
 10
9.74999548361194
 20
-220.8645561786619
 30
0.0
 11
89.74999548361194
 21
-220.8645561786619
 31
0.0
  0
LINE
  5
67
330
48
100
AcDbEntity
  8
1
  6
Continuous
 62
     2
100
AcDbLine
 10
9.74999548361194
 20
-225.1645561786619
 30
0.0
 11
109.7499954836119
 21
-225.1645561786619
 31
0.0
  0
LINE
  5
68
330
48
100
AcDbEntity
  8
1
  6
Continuous
 62
     2
100
AcDbLine
 10
9.74999548361194
 20
-242.3645561786619
 30
0.0
 11
64.74999548361194
 21
-242.3645561786619
 31
0.0
  0
LINE
  5
69
330
48
100
AcDbEntity
  8
1
  6
Continuous
 62
     2
100
AcDbLine
 10
9.74999548361194
 20
-246.6645561786619
 30
0.0
 11
64.74999548361194
 21
-246.6645561786619
 31
0.0
  0
LINE
  5
6A
330
48
100
AcDbEntity
  8
1
  6
Continuous
 62
     2
100
AcDbLine
 10
9.74999548361194
 20
-250.9645561786618
 30
0.0
 11
64.74999548361194
 21
-250.9645561786618
 31
0.0
  0
LINE
  5
6B
330
48
100
AcDbEntity
  8
1
  6
Continuous
 62
     2
100
AcDbLine
 10
109.7499954836119
 20
-229.464556178662
 30
0.0
 11
9.74999548361194
 21
-229.464556178662
 31
0.0
  0
LINE
  5
6C
330
48
100
AcDbEntity
  8
1
  6
Continuous
 62
     2
100
AcDbLine
 10
9.74999548361194
 20
-238.064556178662
 30
0.0
 11
109.7499954836119
 21
-238.064556178662
 31
0.0
  0
LINE
  5
6D
330
48
100
AcDbEntity
  8
1
  6
Continuous
 62
     7
100
AcDbLine
 10
64.74999548361194
 20
-259.8645561786619
 30
0.0
 11
64.74999548361194
 21
-215.3645561786619
 31
0.0
  0
LINE
  5
6E
330
48
100
AcDbEntity
  8
1
  6
Continuous
 62
     2
100
AcDbLine
 10
15.74999548361194
 20
-259.8645561786619
 30
0.0
 11
15.74999548361194
 21
-220.8645561786619
 31
0.0
  0
LINE
  5
6F
330
48
100
AcDbEntity
  8
1
  6
Continuous
 62
     2
100
AcDbLine
 10
30.74999548361194
 20
-259.8645561786619
 30
0.0
 11
30.74999548361194
 21
-220.8645561786619
 31
0.0
  0
LINE
  5
70
330
48
100
AcDbEntity
  8
1
  6
Continuous
 62
     2
100
AcDbLine
 10
44.74999548361194
 20
-259.8645561786619
 30
0.0
 11
44.74999548361194
 21
-220.8645561786619
 31
0.0
  0
LINE
  5
71
330
48
100
AcDbEntity
  8
1
  6
Continuous
 62
     2
100
AcDbLine
 10
75.74999548361194
 20
-242.3645561786619
 30
0.0
 11
75.74999548361194
 21
-220.8645561786619
 31
0.0
  0
LINE
  5
72
330
48
100
AcDbEntity
  8
1
  6
Continuous
 62
     7
100
AcDbLine
 10
64.74999548361194
 20
-242.3645561786619
 30
0.0
 11
199.7499954836119
 21
-242.3645561786619
 31
0.0
  0
LINE
  5
73
330
48
100
AcDbEntity
  8
1
  6
Continuous
 62
     7
100
AcDbLine
 10
109.7499954836119
 20
-205.8645561786619
 30
0.0
 11
109.7499954836119
 21
-215.3645561786619
 31
0.0
  0
LINE
  5
74
330
48
100
AcDbEntity
  8
1
  6
Continuous
 62
     7
100
AcDbLine
 10
154.7499954836119
 20
-255.2645561786619
 30
0.0
 11
154.7499954836119
 21
-259.8645561786619
 31
0.0
  0
LINE
  5
75
330
48
100
AcDbEntity
  8
1
  6
Continuous
 62
     4
100
AcDbLine
 10
9.74999548361194
 20
-259.8645561786619
 30
0.0
 11
199.7499954836119
 21
-259.8645561786619
 31
0.0
  0
LINE
  5
76
330
48
100
AcDbEntity
  8
1
  6
Continuous
 62
     7
100
AcDbLine
 10
187.749995483611
 20
-242.3645561786619
 30
0.0
 11
187.749995483611
 21
-255.2645561786619
 31
0.0
  0
LINE
  5
77
330
48
100
AcDbEntity
  8
1
  6
Continuous
 62
     7
100
AcDbLine
 10
199.7499954836119
 20
-255.2645561786619
 30
0.0
 11
9.74999548361194
 21
-255.2645561786619
 31
0.0
  0
LINE
  5
78
330
48
100
AcDbEntity
  8
1
  6
Continuous
 62
     4
100
AcDbLine
 10
9.74999548361183
 20
-205.8645561786617
 30
0.0
 11
9.74999548361183
 21
-212.8645561786619
 31
0.0
  0
LINE
  5
79
330
48
100
AcDbEntity
  8
1
  6
Continuous
 62
     4
100
AcDbLine
 10
9.74999548361183
 20
-205.8645561786617
 30
0.0
 11
199.7499954836123
 21
-205.8645561786617
 31
0.0
  0
LINE
  5
7A
330
48
100
AcDbEntity
  8
1
  6
Continuous
 62
     7
100
AcDbLine
 10
109.7499954836119
 20
-211.8645561786619
 30
0.0
 11
199.7499954836119
 21
-211.8645561786619
 31
0.0
  0
LINE
  5
7B
330
48
100
AcDbEntity
  8
1
  6
Continuous
 62
     2
100
AcDbLine
 10
44.74999548361194
 20
-220.8645561786619
 30
0.0
 11
44.74999548361194
 21
-212.8645561786619
 31
0.0
  0
LINE
  5
7C
330
48
100
AcDbEntity
  8
1
  6
DOT_CENTER
 62
     3
100
AcDbLine
 10
58.76839920008354
 20
-220.1045561786617
 30
0.0
 11
58.76839920008354
 21
-213.6245561786618
 31
0.0
  0
LINE
  5
7D
330
48
100
AcDbEntity
  8
1
  6
DOT_CENTER
 62
     3
100
AcDbLine
 10
47.66895109087733
 20
-216.8645561786619
 30
0.0
 11
62.43895109087734
 21
-216.8645561786619
 31
0.0
  0
LINE
  5
7E
330
48
100
AcDbEntity
  8
1
  6
Continuous
 62
     2
100
AcDbLine
 10
48.41289920008344
 20
-218.2820561786618
 30
0.0
 11
54.08289920008343
 21
-219.6995561786618
 31
0.0
  0
LINE
  5
7F
330
48
100
AcDbEntity
  8
1
  6
Continuous
 62
     2
100
AcDbLine
 10
48.41289920008344
 20
-215.4470561786618
 30
0.0
 11
48.41289920008344
 21
-218.2820561786618
 31
0.0
  0
LINE
  5
80
330
48
100
AcDbEntity
  8
1
  6
Continuous
 62
     2
100
AcDbLine
 10
54.08289920008343
 20
-214.0295561786618
 30
0.0
 11
48.41289920008344
 21
-215.4470561786618
 31
0.0
  0
LINE
  5
81
330
48
100
AcDbEntity
  8
1
  6
Continuous
 62
     2
100
AcDbLine
 10
54.08289920008343
 20
-219.6995561786618
 30
0.0
 11
54.08289920008343
 21
-214.0295561786618
 31
0.0
  0
LINE
  5
82
330
48
100
AcDbEntity
  8
1
  6
Continuous
 62
     2
100
AcDbLine
 10
64.74999548361194
 20
-212.8645561786619
 30
0.0
 11
44.74999548361194
 21
-212.8645561786619
 31
0.0
  0
LINE
  5
83
330
48
100
AcDbEntity
  8
1
  6
Continuous
 62
     2
100
AcDbLine
 10
135.7499954836119
 20
-255.2645561786619
 30
0.0
 11
135.7499954836119
 21
-242.3645561786619
 31
0.0
  0
LINE
  5
84
330
48
100
AcDbEntity
  8
1
  6
Continuous
 62
     7
100
AcDbLine
 10
109.7499954836119
 20
-215.3645561786619
 30
0.0
 11
89.74999548361194
 21
-215.3645561786619
 31
0.0
  0
LINE
  5
85
330
48
100
AcDbEntity
  8
1
  6
Continuous
 62
     2
100
AcDbLine
 10
89.74999548361194
 20
-215.3645561786619
 30
0.0
 11
89.74999548361194
 21
-205.8645561786619
 31
0.0
  0
LINE
  5
86
330
48
100
AcDbEntity
  8
1
  6
Continuous
 62
     7
100
AcDbLine
 10
109.7499954836119
 20
-215.3645561786619
 30
0.0
 11
109.7499954836119
 21
-259.8645561786619
 31
0.0
  0
LINE
  5
87
330
48
100
AcDbEntity
  8
1
  6
Continuous
 62
     7
100
AcDbLine
 10
89.74999548361194
 20
-215.3645561786619
 30
0.0
 11
64.74999548361194
 21
-215.3645561786619
 31
0.0
  0
LINE
  5
88
330
48
100
AcDbEntity
  8
1
  6
Continuous
 62
     7
100
AcDbLine
 10
64.74999548361194
 20
-215.3645561786619
 30
0.0
 11
64.74999548361194
 21
-205.8645561786619
 31
0.0
  0
LINE
  5
89
330
48
100
AcDbEntity
  8
1
  6
Continuous
 62
     2
100
AcDbLine
 10
89.74999548361194
 20
-242.3645561786619
 30
0.0
 11
89.74999548361194
 21
-220.8645561786619
 31
0.0
  0
LINE
  5
8A
330
48
100
AcDbEntity
  8
1
  6
Continuous
 62
     7
100
AcDbLine
 10
89.74999548361194
 20
-220.8645561786619
 30
0.0
 11
199.7499954836119
 21
-220.8645561786619
 31
0.0
  0
LINE
  5
8B
330
48
100
AcDbEntity
  8
1
  6
Continuous
 62
     2
100
AcDbLine
 10
44.74999548361194
 20
-212.8645561786619
 30
0.0
 11
9.74999548361183
 21
-212.8645561786619
 31
0.0
  0
LINE
  5
8C
330
48
100
AcDbEntity
  8
1
  6
Continuous
 62
     4
100
AcDbLine
 10
9.74999548361183
 20
-212.8645561786619
 30
0.0
 11
9.74999548361194
 21
-259.8645561786619
 31
0.0
  0
LINE
  5
8D
330
48
100
AcDbEntity
  8
1
  6
Continuous
 62
     2
100
AcDbLine
 10
44.74999548361194
 20
-212.8645561786619
 30
0.0
 11
44.74999548361194
 21
-205.8645561786617
 31
0.0
  0
CIRCLE
  5
8E
330
48
100
AcDbEntity
  8
1
  6
Continuous
 62
     2
100
AcDbCircle
 10
58.76839920008354
 20
-216.8645561786619
 30
0.0
 40
1.417499999999897
  0
CIRCLE
  5
8F
330
48
100
AcDbEntity
  8
1
  6
Continuous
 62
     2
100
AcDbCircle
 10
58.76839920008354
 20
-216.8645561786619
 30
0.0
 40
2.834999999999887
  0
MTEXT
  5
91
330
48
100
AcDbEntity
  8
1
 62
     2
100
AcDbMText
 10
77.24999548361194
 20
-211.5167721755165
 30
0.0
 40
2.0
 41
0.0
 71
     5
 72
     1
  1
ISO 2768-c-E
  7
CONVERTER_11
 73
     1
 44
1.32052821128451
  0
MTEXT
  5
92
330
48
100
AcDbEntity
  8
1
 62
     2
100
AcDbMText
 10
90.74999548361194
 20
-240.214556178662
 30
0.0
 40
2.0
 41
0.0
 71
     4
 72
     1
  1
 
  7
CONVERTER_11
 73
     1
 44
1.32052821128451
  0
MTEXT
  5
93
330
48
100
AcDbEntity
  8
1
 62
     2
100
AcDbMText
 10
76.74999548361194
 20
-240.214556178662
 30
0.0
 40
2.0
 41
0.0
 71
     4
 72
     1
  1
 
  7
CONVERTER_11
 73
     1
 44
1.32052821128451
  0
MTEXT
  5
95
330
48
100
AcDbEntity
  8
1
 62
     2
100
AcDbMText
 10
42.92175499904994
 20
-210.5312228453285
 30
0.0
 40
2.0
 41
0.0
 71
     6
 72
     1
  1
 
  7
CONVERTER_12
 73
     1
 44
1.32052821128451
  0
MTEXT
  5
97
330
48
100
AcDbEntity
  8
1
 62
     3
100
AcDbMText
 10
163.7499954836125
 20
-212.8645561786619
 30
0.0
 40
1.8
 41
0.0
 71
     1
 72
     1
  1
Halbzeug/\PRohteil-Nr.
  7
CONVERTER_13
 73
     1
 44
1.02040816326531
  0
MTEXT
  5
98
330
48
100
AcDbEntity
  8
1
 62
     3
100
AcDbMText
 10
27.24999548361194
 20
-216.8645561786619
 30
0.0
 40
1.8
 41
0.0
 71
     5
 72
     1
  1
Schutzvermerk\PISO 16016 beachten
  7
CONVERTER_13
 73
     1
 44
1.02040816326531
  0
MTEXT
  5
99
330
48
100
AcDbEntity
  8
1
 62
     3
100
AcDbMText
 10
188.749995483611
 20
-243.3645561786619
 30
0.0
 40
1.8
 41
0.0
 71
     1
 72
     1
  1
Blatt
  7
CONVERTER_13
 73
     1
 44
1.68067226890756
  0
MTEXT
  5
9A
330
48
100
AcDbEntity
  8
1
 62
     3
100
AcDbMText
 10
90.74999548361194
 20
-206.8645561786619
 30
0.0
 40
1.8
 41
0.0
 71
     1
 72
     1
  1
Ma\U+00dfstab
  7
CONVERTER_13
 73
     1
 44
1.68067226890756
  0
MTEXT
  5
9B
330
48
100
AcDbEntity
  8
1
 62
     3
100
AcDbMText
 10
155.7499954836119
 20
-257.5809821405686
 30
0.0
 40
1.8
 41
0.0
 71
     4
 72
     1
  1
Ers. durch
  7
CONVERTER_13
 73
     1
 44
1.68067226890756
  0
MTEXT
  5
9C
330
48
100
AcDbEntity
  8
1
 62
     3
100
AcDbMText
 10
110.7499954836119
 20
-257.5809821405686
 30
0.0
 40
1.8
 41
0.0
 71
     4
 72
     1
  1
Ersatz f\U+00fcr
  7
CONVERTER_13
 73
     1
 44
1.68067226890756
  0
MTEXT
  5
9D
330
48
100
AcDbEntity
  8
1
 62
     3
100
AcDbMText
 10
65.74999548361194
 20
-257.5809821405686
 30
0.0
 40
1.8
 41
0.0
 71
     4
 72
     1
  1
Ursprung
  7
CONVERTER_13
 73
     1
 44
1.68067226890756
  0
MTEXT
  5
9E
330
48
100
AcDbEntity
  8
1
 62
     3
100
AcDbMText
 10
54.74999548361194
 20
-257.5809821405686
 30
0.0
 40
1.8
 41
0.0
 71
     5
 72
     1
  1
Name
  7
CONVERTER_13
 73
     1
 44
1.68067226890756
  0
MTEXT
  5
9F
330
48
100
AcDbEntity
  8
1
 62
     3
100
AcDbMText
 10
37.74999548361194
 20
-257.5809821405686
 30
0.0
 40
1.8
 41
0.0
 71
     5
 72
     1
  1
Datum
  7
CONVERTER_13
 73
     1
 44
1.68067226890756
  0
MTEXT
  5
A0
330
48
100
AcDbEntity
  8
1
 62
     3
100
AcDbMText
 10
23.24999548361194
 20
-257.5809821405686
 30
0.0
 40
1.8
 41
0.0
 71
     5
 72
     1
  1
\U+00c4nderung
  7
CONVERTER_13
 73
     1
 44
1.68067226890756
  0
MTEXT
  5
A1
330
48
100
AcDbEntity
  8
1
 62
     3
100
AcDbMText
 10
12.74999548361194
 20
-257.5809821405686
 30
0.0
 40
1.8
 41
0.0
 71
     5
 72
     1
  1
Zust.
  7
CONVERTER_13
 73
     1
 44
1.68067226890756
  0
MTEXT
  5
A3
330
48
100
AcDbEntity
  8
1
 62
     3
100
AcDbMText
 10
79.50096228279995
 20
-248.814556178662
 30
0.0
 40
1.6
 41
0.0
 71
     4
 72
     1
  1
haacon hebetechnik gmbh\PJosef-Haamann-Stra\U+00dfe 6\PD-97896 Freudenberg/Main
  7
CONVERTER_14
 73
     1
 44
1.68067226890756
  0
MTEXT
  5
A5
330
48
100
AcDbEntity
  8
1
 62
     7
100
AcDbMText
 10
71.87664772617404
 20
-254.3560983884318
 30
0.0
 40
2.0
 41
0.0
 71
     8
 72
     1
  1
haacon
  7
CONVERTER_15
 73
     1
 44
1.50060024009604
  0
MTEXT
  5
A6
330
48
100
AcDbEntity
  8
1
 62
     3
100
AcDbMText
 10
65.74999548361194
 20
-227.314556178662
 30
0.0
 40
1.8
 41
0.0
 71
     4
 72
     1
  1
Bearb.
  7
CONVERTER_13
 73
     1
 44
1.68067226890756
  0
MTEXT
  5
A7
330
48
100
AcDbEntity
  8
1
 62
     3
100
AcDbMText
 10
65.74999548361194
 20
-231.4298590324935
 30
0.0
 40
1.8
 41
0.0
 71
     4
 72
     1
  1
Gepr.
  7
CONVERTER_13
 73
     1
 44
1.68067226890756
  0
MTEXT
  5
A8
330
48
100
AcDbEntity
  8
1
 62
     3
100
AcDbMText
 10
65.74999548361194
 20
-235.9145561786619
 30
0.0
 40
1.8
 41
0.0
 71
     4
 72
     1
  1
Norm.
  7
CONVERTER_13
 73
     1
 44
1.68067226890756
  0
MTEXT
  5
A9
330
48
100
AcDbEntity
  8
1
 62
     3
100
AcDbMText
 10
76.74999548361194
 20
-223.0145561786619
 30
0.0
 40
1.8
 41
0.0
 71
     4
 72
     1
  1
Datum
  7
CONVERTER_13
 73
     1
 44
1.68067226890756
  0
MTEXT
  5
AA
330
48
100
AcDbEntity
  8
1
 62
     3
100
AcDbMText
 10
90.74999548361194
 20
-223.0145561786619
 30
0.0
 40
1.8
 41
0.0
 71
     4
 72
     1
  1
Name
  7
CONVERTER_13
 73
     1
 44
1.68067226890756
  0
MTEXT
  5
AB
330
48
100
AcDbEntity
  8
1
 62
     3
100
AcDbMText
 10
65.74999548361194
 20
-206.8645561786619
 30
0.0
 40
1.8
 41
0.0
 71
     1
 72
     1
  1
Allgemeintoleranz
  7
CONVERTER_13
 73
     1
 44
1.02040816326531
  0
MTEXT
  5
AC
330
48
100
AcDbEntity
  8
1
 62
     3
100
AcDbMText
 10
110.7499954836119
 20
-212.8645561786619
 30
0.0
 40
1.8
 41
0.0
 71
     1
 72
     1
  1
Werkstoff
  7
CONVERTER_13
 73
     1
 44
1.02040816326531
  0
MTEXT
  5
AD
330
48
100
AcDbEntity
  8
1
 62
     3
100
AcDbMText
 10
110.7499954836119
 20
-243.3645561786619
 30
0.0
 40
1.8
 41
0.0
 71
     1
 72
     1
  1
Klassifizierungs-Nr.
  7
CONVERTER_13
 73
     1
 44
1.68067226890756
  0
MTEXT
  5
AE
330
48
100
AcDbEntity
  8
1
 62
     2
100
AcDbMText
 10
178.8240616338005
 20
-216.3645561786619
 30
0.0
 40
3.0
 41
0.0
 71
     4
 72
     1
  1
 
  7
CONVERTER_12
 73
     1
 44
1.32052821128451
  0
MTEXT
  5
AF
330
48
100
AcDbEntity
  8
1
 62
     2
100
AcDbMText
 10
136.1938389561923
 20
-217.8645561786619
 30
0.0
 40
3.0
 41
0.0
 71
     5
 72
     1
  1
 
  7
CONVERTER_12
 73
     1
 44
1.32052821128451
  0
MTEXT
  5
B0
330
48
100
AcDbEntity
  8
1
 62
     7
100
AcDbMText
 10
112.7499954836119
 20
-231.6145561786619
 30
0.0
 40
4.0
 41
0.0
 71
     4
 72
     1
  1
Handseilwinde WA100 mit\Pabnehmbarer Kurbel
  7
CONVERTER_14
 73
     1
 44
1.14045618247299
  0
MTEXT
  5
B1
330
48
100
AcDbEntity
  8
1
 62
     2
100
AcDbMText
 10
193.7499954836119
 20
-249.814556178662
 30
0.0
 40
3.0
 41
0.0
 71
     5
 72
     1
  1
1
  7
CONVERTER_12
 73
     1
 44
1.32052821128451
  0
MTEXT
  5
B2
330
48
100
AcDbEntity
  8
1
 62
     2
100
AcDbMText
 10
171.7499954836119
 20
-257.5809821405686
 30
0.0
 40
2.0
 41
0.0
 71
     4
 72
     1
  1
 
  7
CONVERTER_11
 73
     1
 44
1.32052821128451
  0
MTEXT
  5
B3
330
48
100
AcDbEntity
  8
1
 62
     2
100
AcDbMText
 10
126.7499954836119
 20
-257.5809821405686
 30
0.0
 40
2.0
 41
0.0
 71
     4
 72
     1
  1
 
  7
CONVERTER_11
 73
     1
 44
1.32052821128451
  0
MTEXT
  5
B4
330
48
100
AcDbEntity
  8
1
 62
     7
100
AcDbMText
 10
99.74999548361194
 20
-212.0167721755165
 30
0.0
 40
4.5
 41
0.0
 71
     5
 72
     1
  1
1:2
  7
CONVERTER_14
 73
     1
 44
1.14045618247299
  0
MTEXT
  5
B5
330
48
100
AcDbEntity
  8
1
 62
     2
100
AcDbMText
 10
76.74999548361194
 20
-235.9145561786619
 30
0.0
 40
2.0
 41
0.0
 71
     4
 72
     1
  1
10.04.01
  7
CONVERTER_11
 73
     1
 44
1.32052821128451
  0
MTEXT
  5
B6
330
48
100
AcDbEntity
  8
1
 62
     2
100
AcDbMText
 10
76.74999548361194
 20
-231.6145561786619
 30
0.0
 40
2.0
 41
0.0
 71
     4
 72
     1
  1
10.04.01
  7
CONVERTER_11
 73
     1
 44
1.32052821128451
  0
MTEXT
  5
B7
330
48
100
AcDbEntity
  8
1
 62
     2
100
AcDbMText
 10
76.74999548361194
 20
-227.314556178662
 30
0.0
 40
2.0
 41
0.0
 71
     4
 72
     1
  1
15.06.00
  7
CONVERTER_11
 73
     1
 44
1.32052821128451
  0
MTEXT
  5
B8
330
48
100
AcDbEntity
  8
1
 62
     2
100
AcDbMText
 10
90.74999548361194
 20
-227.314556178662
 30
0.0
 40
2.0
 41
0.0
 71
     4
 72
     1
  1
Mayer
  7
CONVERTER_11
 73
     1
 44
1.32052821128451
  0
MTEXT
  5
B9
330
48
100
AcDbEntity
  8
1
 62
     2
100
AcDbMText
 10
90.74999548361194
 20
-231.6145561786619
 30
0.0
 40
2.0
 41
0.0
 71
     4
 72
     1
  1
Rosbach
  7
CONVERTER_11
 73
     1
 44
1.32052821128451
  0
MTEXT
  5
BA
330
48
100
AcDbEntity
  8
1
 62
     2
100
AcDbMText
 10
90.74999548361194
 20
-235.9145561786619
 30
0.0
 40
2.0
 41
0.0
 71
     4
 72
     1
  1
Rosbach
  7
CONVERTER_11
 73
     1
 44
1.32052821128451
  0
MTEXT
  5
BB
330
48
100
AcDbEntity
  8
1
 62
     2
100
AcDbMText
 10
81.74999548361194
 20
-257.5809821405686
 30
0.0
 40
2.0
 41
0.0
 71
     4
 72
     1
  1
 
  7
CONVERTER_11
 73
     1
 44
1.32052821128451
  0
MTEXT
  5
BC
330
48
100
AcDbEntity
  8
1
 62
     2
100
AcDbMText
 10
12.74999548361194
 20
-253.1145561786619
 30
0.0
 40
2.0
 41
0.0
 71
     5
 72
     1
  1
2
  7
CONVERTER_11
 73
     1
 44
1.32052821128451
  0
MTEXT
  5
BD
330
48
100
AcDbEntity
  8
1
 62
     2
100
AcDbMText
 10
12.74999548361194
 20
-248.814556178662
 30
0.0
 40
2.0
 41
0.0
 71
     5
 72
     1
  1
3
  7
CONVERTER_11
 73
     1
 44
1.32052821128451
  0
MTEXT
  5
BE
330
48
100
AcDbEntity
  8
1
 62
     2
100
AcDbMText
 10
12.74999548361194
 20
-244.5145561786618
 30
0.0
 40
2.0
 41
0.0
 71
     5
 72
     1
  1
 
  7
CONVERTER_11
 73
     1
 44
1.32052821128451
  0
MTEXT
  5
BF
330
48
100
AcDbEntity
  8
1
 62
     2
100
AcDbMText
 10
12.74999548361194
 20
-240.2145561786617
 30
0.0
 40
2.0
 41
0.0
 71
     5
 72
     1
  1
 
  7
CONVERTER_11
 73
     1
 44
1.32052821128451
  0
MTEXT
  5
C0
330
48
100
AcDbEntity
  8
1
 62
     2
100
AcDbMText
 10
12.74999548361194
 20
-235.9145561786617
 30
0.0
 40
2.0
 41
0.0
 71
     5
 72
     1
  1
 
  7
CONVERTER_11
 73
     1
 44
1.32052821128451
  0
MTEXT
  5
C1
330
48
100
AcDbEntity
  8
1
 62
     2
100
AcDbMText
 10
12.74999548361194
 20
-231.6145561786616
 30
0.0
 40
2.0
 41
0.0
 71
     5
 72
     1
  1
 
  7
CONVERTER_11
 73
     1
 44
1.32052821128451
  0
MTEXT
  5
C2
330
48
100
AcDbEntity
  8
1
 62
     2
100
AcDbMText
 10
12.74999548361194
 20
-227.3145561786616
 30
0.0
 40
2.0
 41
0.0
 71
     5
 72
     1
  1
 
  7
CONVERTER_11
 73
     1
 44
1.32052821128451
  0
MTEXT
  5
C3
330
48
100
AcDbEntity
  8
1
 62
     2
100
AcDbMText
 10
12.74999548361194
 20
-223.0145561786615
 30
0.0
 40
2.0
 41
0.0
 71
     5
 72
     1
  1
 
  7
CONVERTER_11
 73
     1
 44
1.32052821128451
  0
MTEXT
  5
C4
330
48
100
AcDbEntity
  8
1
 62
     2
100
AcDbMText
 10
16.74999548361194
 20
-223.0145561786615
 30
0.0
 40
2.0
 41
0.0
 71
     4
 72
     1
  1
 
  7
CONVERTER_11
 73
     1
 44
1.32052821128451
  0
MTEXT
  5
C5
330
48
100
AcDbEntity
  8
1
 62
     2
100
AcDbMText
 10
16.74999548361194
 20
-227.3145561786616
 30
0.0
 40
2.0
 41
0.0
 71
     4
 72
     1
  1
 
  7
CONVERTER_11
 73
     1
 44
1.32052821128451
  0
MTEXT
  5
C6
330
48
100
AcDbEntity
  8
1
 62
     2
100
AcDbMText
 10
16.74999548361194
 20
-231.6145561786616
 30
0.0
 40
2.0
 41
0.0
 71
     4
 72
     1
  1
 
  7
CONVERTER_11
 73
     1
 44
1.32052821128451
  0
MTEXT
  5
C7
330
48
100
AcDbEntity
  8
1
 62
     2
100
AcDbMText
 10
16.74999548361194
 20
-235.9145561786617
 30
0.0
 40
2.0
 41
0.0
 71
     4
 72
     1
  1
 
  7
CONVERTER_11
 73
     1
 44
1.32052821128451
  0
MTEXT
  5
C8
330
48
100
AcDbEntity
  8
1
 62
     2
100
AcDbMText
 10
16.74999548361194
 20
-240.2145561786617
 30
0.0
 40
2.0
 41
0.0
 71
     4
 72
     1
  1
 
  7
CONVERTER_11
 73
     1
 44
1.32052821128451
  0
MTEXT
  5
C9
330
48
100
AcDbEntity
  8
1
 62
     2
100
AcDbMText
 10
16.74999548361194
 20
-244.5145561786618
 30
0.0
 40
2.0
 41
0.0
 71
     4
 72
     1
  1
 
  7
CONVERTER_11
 73
     1
 44
1.32052821128451
  0
MTEXT
  5
CA
330
48
100
AcDbEntity
  8
1
 62
     2
100
AcDbMText
 10
16.74999548361194
 20
-248.814556178662
 30
0.0
 40
2.0
 41
0.0
 71
     4
 72
     1
  1
---
  7
CONVERTER_11
 73
     1
 44
1.32052821128451
  0
MTEXT
  5
CB
330
48
100
AcDbEntity
  8
1
 62
     2
100
AcDbMText
 10
16.74999548361194
 20
-253.1145561786619
 30
0.0
 40
2.0
 41
0.0
 71
     4
 72
     1
  1
---
  7
CONVERTER_11
 73
     1
 44
1.32052821128451
  0
MTEXT
  5
CC
330
48
100
AcDbEntity
  8
1
 62
     2
100
AcDbMText
 10
31.74999548361194
 20
-253.1145561786619
 30
0.0
 40
2.0
 41
0.0
 71
     4
 72
     1
  1
24.03.16
  7
CONVERTER_11
 73
     1
 44
1.32052821128451
  0
MTEXT
  5
CD
330
48
100
AcDbEntity
  8
1
 62
     2
100
AcDbMText
 10
31.74999548361194
 20
-248.814556178662
 30
0.0
 40
2.0
 41
0.0
 71
     4
 72
     1
  1
12.09.18
  7
CONVERTER_11
 73
     1
 44
1.32052821128451
  0
MTEXT
  5
CE
330
48
100
AcDbEntity
  8
1
 62
     2
100
AcDbMText
 10
31.74999548361194
 20
-244.5145561786618
 30
0.0
 40
2.0
 41
0.0
 71
     4
 72
     1
  1
 
  7
CONVERTER_11
 73
     1
 44
1.32052821128451
  0
MTEXT
  5
CF
330
48
100
AcDbEntity
  8
1
 62
     2
100
AcDbMText
 10
31.74999548361194
 20
-240.2145561786617
 30
0.0
 40
2.0
 41
0.0
 71
     4
 72
     1
  1
 
  7
CONVERTER_11
 73
     1
 44
1.32052821128451
  0
MTEXT
  5
D0
330
48
100
AcDbEntity
  8
1
 62
     2
100
AcDbMText
 10
31.74999548361194
 20
-235.9145561786617
 30
0.0
 40
2.0
 41
0.0
 71
     4
 72
     1
  1
 
  7
CONVERTER_11
 73
     1
 44
1.32052821128451
  0
MTEXT
  5
D1
330
48
100
AcDbEntity
  8
1
 62
     2
100
AcDbMText
 10
31.74999548361194
 20
-231.6145561786616
 30
0.0
 40
2.0
 41
0.0
 71
     4
 72
     1
  1
 
  7
CONVERTER_11
 73
     1
 44
1.32052821128451
  0
MTEXT
  5
D2
330
48
100
AcDbEntity
  8
1
 62
     2
100
AcDbMText
 10
31.74999548361194
 20
-227.3145561786616
 30
0.0
 40
2.0
 41
0.0
 71
     4
 72
     1
  1
 
  7
CONVERTER_11
 73
     1
 44
1.32052821128451
  0
MTEXT
  5
D3
330
48
100
AcDbEntity
  8
1
 62
     2
100
AcDbMText
 10
31.74999548361194
 20
-223.0145561786615
 30
0.0
 40
2.0
 41
0.0
 71
     4
 72
     1
  1
 
  7
CONVERTER_11
 73
     1
 44
1.32052821128451
  0
MTEXT
  5
D4
330
48
100
AcDbEntity
  8
1
 62
     2
100
AcDbMText
 10
45.74999548361194
 20
-223.0145561786615
 30
0.0
 40
2.0
 41
0.0
 71
     4
 72
     1
  1
 
  7
CONVERTER_11
 73
     1
 44
1.32052821128451
  0
MTEXT
  5
D5
330
48
100
AcDbEntity
  8
1
 62
     2
100
AcDbMText
 10
45.74999548361194
 20
-227.3145561786616
 30
0.0
 40
2.0
 41
0.0
 71
     4
 72
     1
  1
 
  7
CONVERTER_11
 73
     1
 44
1.32052821128451
  0
MTEXT
  5
D6
330
48
100
AcDbEntity
  8
1
 62
     2
100
AcDbMText
 10
45.74999548361194
 20
-231.6145561786616
 30
0.0
 40
2.0
 41
0.0
 71
     4
 72
     1
  1
 
  7
CONVERTER_11
 73
     1
 44
1.32052821128451
  0
MTEXT
  5
D7
330
48
100
AcDbEntity
  8
1
 62
     2
100
AcDbMText
 10
45.74999548361194
 20
-235.9145561786617
 30
0.0
 40
2.0
 41
0.0
 71
     4
 72
     1
  1
 
  7
CONVERTER_11
 73
     1
 44
1.32052821128451
  0
MTEXT
  5
D8
330
48
100
AcDbEntity
  8
1
 62
     2
100
AcDbMText
 10
45.74999548361194
 20
-240.2145561786617
 30
0.0
 40
2.0
 41
0.0
 71
     4
 72
     1
  1
 
  7
CONVERTER_11
 73
     1
 44
1.32052821128451
  0
MTEXT
  5
D9
330
48
100
AcDbEntity
  8
1
 62
     2
100
AcDbMText
 10
45.74999548361194
 20
-244.5145561786618
 30
0.0
 40
2.0
 41
0.0
 71
     4
 72
     1
  1
 
  7
CONVERTER_11
 73
     1
 44
1.32052821128451
  0
MTEXT
  5
DA
330
48
100
AcDbEntity
  8
1
 62
     2
100
AcDbMText
 10
45.74999548361194
 20
-248.814556178662
 30
0.0
 40
2.0
 41
0.0
 71
     4
 72
     1
  1
Natterer
  7
CONVERTER_11
 73
     1
 44
1.32052821128451
  0
MTEXT
  5
DB
330
48
100
AcDbEntity
  8
1
 62
     2
100
AcDbMText
 10
45.74999548361194
 20
-253.1145561786619
 30
0.0
 40
2.0
 41
0.0
 71
     4
 72
     1
  1
Natterer
  7
CONVERTER_11
 73
     1
 44
1.32052821128451
  0
MTEXT
  5
DC
330
48
100
AcDbEntity
  8
1
 62
     3
100
AcDbMText
 10
10.74999548361183
 20
-206.8645561786619
 30
0.0
 40
1.8
 41
0.0
 71
     1
 72
     1
  1
Kommissions-Nr.
  7
CONVERTER_13
 73
     1
 44
1.02040816326531
  0
MTEXT
  5
DD
330
48
100
AcDbEntity
  8
1
 62
     2
100
AcDbMText
 10
136.1938389561923
 20
-208.8645561786619
 30
0.0
 40
2.0
 41
0.0
 71
     5
 72
     1
  1
ANGEBOTSZEICHNUNG
  7
CONVERTER_12
 73
     1
 44
1.32052821128451
  0
MTEXT
  5
DE
330
48
100
AcDbEntity
  8
1
 62
     3
100
AcDbMText
 10
45.74999548361194
 20
-206.8645561786617
 30
0.0
 40
1.8
 41
0.0
 71
     1
 72
     1
  1
Oberfl\U+00e4che\PDIN ISO 1302
  7
CONVERTER_13
 73
     1
 44
1.02040816326531
  0
MTEXT
  5
DF
330
48
100
AcDbEntity
  8
1
 62
     7
100
AcDbMText
 10
112.7499954836119
 20
-249.814556178662
 30
0.0
 40
4.0
 41
0.0
 71
     4
 72
     1
  1
62001
  7
CONVERTER_14
 73
     1
 44
1.14045618247299
  0
MTEXT
  5
E0
330
48
100
AcDbEntity
  8
1
 62
     7
100
AcDbMText
 10
138.7499954836119
 20
-249.814556178662
 30
0.0
 40
4.0
 41
0.0
 71
     4
 72
     1
  1
209018
  7
CONVERTER_14
 73
     1
 44
1.14045618247299
  0
MTEXT
  5
E1
330
48
100
AcDbEntity
  8
1
 62
     3
100
AcDbMText
 10
136.7499954836119
 20
-243.3645561786619
 30
0.0
 40
1.8
 41
0.0
 71
     1
 72
     1
  1
Zeichnungs-Nr.
  7
CONVERTER_13
 73
     1
 44
1.68067226890756
  0
MTEXT
  5
E2
330
48
100
AcDbEntity
  8
1
 62
     3
100
AcDbMText
 10
65.74999548361194
 20
-216.364556178662
 30
0.0
 40
1.8
 41
0.0
 71
     1
 72
     1
  1
Status
  7
CONVERTER_13
 73
     1
 44
1.02040816326531
  0
MTEXT
  5
E3
330
48
100
AcDbEntity
  8
1
 62
     2
100
AcDbMText
 10
91.79999548326094
 20
-217.8645561786619
 30
0.0
 40
2.0
 41
0.0
 71
     5
 72
     1
  1
freigegeben
  7
CONVERTER_11
 73
     1
 44
1.32052821128451
  0
MTEXT
  5
E4
330
48
100
AcDbEntity
  8
1
 62
     3
100
AcDbMText
 10
65.74999548361194
 20
-240.2145561786619
 30
0.0
 40
1.8
 41
0.0
 71
     4
 72
     1
  1
Schw.Fr.
  7
CONVERTER_13
 73
     1
 44
1.68067226890756
  0
MTEXT
  5
E5
330
48
100
AcDbEntity
  8
1
 62
     2
100
AcDbMText
 10
65.74999548361194
 20
-223.0145561786617
 30
0.0
 40
2.0
 41
0.0
 71
     4
 72
     1
  1
12.09.18
  7
CONVERTER_11
 73
     1
 44
1.32052821128451
  0
MTEXT
  5
E6
330
48
100
AcDbEntity
  8
1
 62
     3
100
AcDbMText
 10
163.7499954836125
 20
-206.8645561786619
 30
0.0
 40
1.8
 41
0.0
 71
     1
 72
     1
  1
Gewicht
  7
CONVERTER_13
 73
     1
 44
1.02040816326531
  0
MTEXT
  5
E7
330
48
100
AcDbEntity
  8
1
 62
     3
100
AcDbMText
 10
196.2499954836123
 20
-209.3645561786619
 30
0.0
 40
1.8
 41
0.0
 71
     4
 72
     1
  1
kg
  7
CONVERTER_13
 73
     1
 44
1.02040816326531
  0
MTEXT
  5
E8
330
48
100
AcDbEntity
  8
1
 62
     2
100
AcDbMText
 10
194.7499954836123
 20
-209.3645561786619
 30
0.0
 40
3.0
 41
0.0
 71
     6
 72
     1
  1
 
  7
CONVERTER_11
 73
     1
 44
1.32052821128451
  0
HATCH
  5
E9
330
48
100
AcDbEntity
  8
1
  6
Continuous
 62
     2
100
AcDbHatch
 10
0.0
 20
0.0
 30
0.0
210
0.0
220
0.0
230
1.0
  2
SOLID
 70
     1
 71
     1
 91
        1
 92
        1
 93
        3
 72
     1
 10
70.27547888320603
 20
-249.4900395782557
 11
70.27547888320603
 21
-251.7527812780526
 72
     1
 10
70.27547888320603
 20
-251.7527812780526
 11
68.01273718340883
 21
-251.7527812780527
 72
     1
 10
68.01273718340883
 20
-251.7527812780527
 11
70.27547888320603
 21
-249.4900395782557
 97
        3
330
58
330
57
330
56
 75
     0
 76
     1
 98
        1
 10
0.0
 20
0.0
  0
HATCH
  5
EA
330
48
100
AcDbEntity
  8
1
  6
Continuous
 62
     2
100
AcDbHatch
 10
0.0
 20
0.0
 30
0.0
210
0.0
220
0.0
230
1.0
  2
SOLID
 70
     1
 71
     1
 91
        1
 92
        1
 93
        9
 72
     1
 10
65.74999548361194
 20
-243.3645561786619
 11
65.74999548361194
 21
-251.7527812780526
 72
     1
 10
65.74999548361194
 20
-251.7527812780526
 11
68.01273718340883
 21
-251.7527812780527
 72
     1
 10
68.01273718340883
 20
-251.7527812780527
 11
65.74999548361194
 21
-249.4900395782557
 72
     1
 10
65.74999548361194
 20
-249.4900395782557
 11
71.87547888320594
 21
-243.3645561786618
 72
     1
 10
71.87547888320594
 20
-243.3645561786618
 11
78.00096228279995
 21
-249.4900395782557
 72
     1
 10
78.00096228279995
 20
-249.4900395782557
 11
75.73822058300294
 21
-251.7527812780527
 72
     1
 10
75.73822058300294
 20
-251.7527812780527
 11
78.00096228279995
 21
-251.7527812780526
 72
     1
 10
78.00096228279995
 20
-251.7527812780526
 11
78.00096228279995
 21
-243.3645561786618
 72
     1
 10
78.00096228279995
 20
-243.3645561786618
 11
65.74999548361194
 21
-243.3645561786619
 97
        9
330
61
330
60
330
5F
330
5E
330
5D
330
5C
330
5B
330
5A
330
59
 75
     0
 76
     1
 98
        1
 10
0.0
 20
0.0
  0
HATCH
  5
EB
330
48
100
AcDbEntity
  8
1
  6
Continuous
 62
     2
100
AcDbHatch
 10
0.0
 20
0.0
 30
0.0
210
0.0
220
0.0
230
1.0
  2
SOLID
 70
     1
 71
     1
 91
        1
 92
        1
 93
        3
 72
     1
 10
73.47547888320614
 20
-249.4900395782557
 11
73.47547888320614
 21
-251.7527812780526
 72
     1
 10
73.47547888320614
 20
-251.7527812780526
 11
75.73822058300294
 21
-251.7527812780527
 72
     1
 10
75.73822058300294
 20
-251.7527812780527
 11
73.47547888320614
 21
-249.4900395782557
 97
        3
330
64
330
63
330
62
 75
     0
 76
     1
 98
        1
 10
0.0
 20
0.0
  0
ENDBLK
  5
4A
330
48
100
AcDbEntity
  8
0
100
AcDbBlockEnd
  0
BLOCK
  5
4D
330
4B
100
AcDbEntity
  8
0
100
AcDbBlockBegin
  2
_tb_frame_A3_2000
 70
     0
 10
-0.24975322850636
 20
-116.3309029874318
 30
0.0
  3
_tb_frame_A3_2000
  1

  0
INSERT
  5
4C
330
4B
100
AcDbEntity
  8
0
100
AcDbBlockReference
  2
_schriftfeld_2000
 10
199.7499954836119
 20
-259.8645561786619
 30
0.0
  0
LINE
  5
EC
330
4B
100
AcDbEntity
  8
1
  6
Continuous
 62
     3
100
AcDbLine
 10
-40.87484746190057
 20
-259.8564433070334
 30
0.0
 11
-40.87484746190057
 21
-264.8556421038197
 31
0.0
  0
LINE
  5
ED
330
4B
100
AcDbEntity
  8
1
  6
Continuous
 62
     3
100
AcDbLine
 10
-88.99981605100325
 20
-259.8487311131817
 30
0.0
 11
-88.99981605100325
 21
-264.8479299099681
 31
0.0
  0
LINE
  5
EE
330
4B
100
AcDbEntity
  8
1
  6
Continuous
 62
     4
100
AcDbLine
 10
-190.2497532292084
 20
-264.8645561786615
 30
0.0
 11
204.7499954843139
 21
-264.8637549112449
 31
0.0
  0
LINE
  5
EF
330
4B
100
AcDbEntity
  8
1
  6
Continuous
 62
     3
100
AcDbLine
 10
9.74999548361254
 20
-259.8645561144585
 30
0.0
 11
-185.2497532292084
 21
-259.8645561144585
 31
0.0
  0
LINE
  5
F0
330
4B
100
AcDbEntity
  8
1
  6
Continuous
 62
     3
100
AcDbLine
 10
-137.1247846401058
 20
-259.8410189193302
 30
0.0
 11
-137.1247846401058
 21
-264.8402177161164
 31
0.0
  0
LINE
  5
F1
330
4B
100
AcDbEntity
  8
1
  6
Continuous
 62
     3
100
AcDbLine
 10
-185.2497532292084
 20
-259.8645561144585
 30
0.0
 11
-185.2497532292084
 21
17.1682957451518
 31
0.0
  0
LINE
  5
F2
330
4B
100
AcDbEntity
  8
1
  6
Continuous
 62
     3
100
AcDbLine
 10
-190.2497532292084
 20
-213.6525054901634
 30
0.0
 11
-185.2497532292084
 21
-213.6525054901634
 31
0.0
  0
LINE
  5
F3
330
4B
100
AcDbEntity
  8
1
  6
Continuous
 62
     3
100
AcDbLine
 10
151.62502689451
 20
22.16829574515185
 30
0.0
 11
151.62502689451
 21
17.16829574515185
 31
0.0
  0
LINE
  5
F4
330
4B
100
AcDbEntity
  8
1
  6
Continuous
 62
     3
100
AcDbLine
 10
103.5000583054073
 20
22.16829574515185
 30
0.0
 11
103.5000583054073
 21
17.16829574515185
 31
0.0
  0
LINE
  5
F5
330
4B
100
AcDbEntity
  8
1
  6
Continuous
 62
     4
100
AcDbLine
 10
204.7502467707916
 20
22.16829574515185
 30
0.0
 11
-190.2497532292084
 21
22.1682957451518
 31
0.0
  0
LINE
  5
F6
330
4B
100
AcDbEntity
  8
1
  6
Continuous
 62
     3
100
AcDbLine
 10
55.37508971630464
 20
22.1682957451518
 30
0.0
 11
55.37508971630464
 21
17.16829574515185
 31
0.0
  0
LINE
  5
F7
330
4B
100
AcDbEntity
  8
1
  6
Continuous
 62
     3
100
AcDbLine
 10
7.25012112720205
 20
22.1682957451518
 30
0.0
 11
7.25012112720205
 21
17.16829574515185
 31
0.0
  0
LINE
  5
F8
330
4B
100
AcDbEntity
  8
1
  6
Continuous
 62
     3
100
AcDbLine
 10
-40.87484746190066
 20
22.1682957451518
 30
0.0
 11
-40.87484746190066
 21
17.1682957451518
 31
0.0
  0
LINE
  5
F9
330
4B
100
AcDbEntity
  8
1
  6
Continuous
 62
     3
100
AcDbLine
 10
-88.99981605100325
 20
22.1682957451518
 30
0.0
 11
-88.99981605100325
 21
17.1682957451518
 31
0.0
  0
LINE
  5
FA
330
4B
100
AcDbEntity
  8
1
  6
Continuous
 62
     3
100
AcDbLine
 10
-185.2497532292084
 20
17.1682957451518
 30
0.0
 11
199.7499954836126
 21
17.16829574515185
 31
0.0
  0
LINE
  5
FB
330
4B
100
AcDbEntity
  8
1
  6
Continuous
 62
     3
100
AcDbLine
 10
-137.1247846401058
 20
22.1682957451518
 30
0.0
 11
-137.1247846401058
 21
17.1682957451518
 31
0.0
  0
LINE
  5
FC
330
4B
100
AcDbEntity
  8
1
  6
Continuous
 62
     3
100
AcDbLine
 10
199.7499954836126
 20
-167.4925054901634
 30
0.0
 11
204.7500165690277
 21
-167.4925054901634
 31
0.0
  0
LINE
  5
FD
330
4B
100
AcDbEntity
  8
1
  6
Continuous
 62
     3
100
AcDbLine
 10
199.7499954836126
 20
-121.3325054901633
 30
0.0
 11
204.7500725959628
 21
-121.3325054901633
 31
0.0
  0
LINE
  5
FE
330
4B
100
AcDbEntity
  8
1
  6
Continuous
 62
     3
100
AcDbLine
 10
199.7499954836126
 20
-75.17250549016333
 30
0.0
 11
204.7501286228981
 21
-75.17250549016333
 31
0.0
  0
LINE
  5
FF
330
4B
100
AcDbEntity
  8
1
  6
Continuous
 62
     3
100
AcDbLine
 10
199.7499954836126
 20
17.16829574515185
 30
0.0
 11
199.7499954836124
 21
-205.8645561786617
 31
0.0
  0
LINE
  5
100
330
4B
100
AcDbEntity
  8
1
  6
Continuous
 62
     3
100
AcDbLine
 10
199.7499954836126
 20
-29.01250549016334
 30
0.0
 11
204.7501846498333
 21
-29.01250549016334
 31
0.0
  0
LINE
  5
101
330
4B
100
AcDbEntity
  8
1
  6
Continuous
 62
     2
100
AcDbLine
 10
-199.2497532292084
 20
-121.3325054901633
 30
0.0
 11
-190.2497532292084
 21
-121.3325054901633
 31
0.0
  0
LINE
  5
102
330
4B
100
AcDbEntity
  8
1
  6
Continuous
 62
     3
100
AcDbLine
 10
-190.2497532292084
 20
-121.3325054901633
 30
0.0
 11
-185.2497532292084
 21
-121.3325054901633
 31
0.0
  0
LINE
  5
103
330
4B
100
AcDbEntity
  8
1
  6
Continuous
 62
     3
100
AcDbLine
 10
-190.2497532292084
 20
-75.17250549016333
 30
0.0
 11
-185.2497532292084
 21
-75.17250549016333
 31
0.0
  0
LINE
  5
104
330
4B
100
AcDbEntity
  8
1
  6
Continuous
 62
     4
100
AcDbLine
 10
-190.2497532292084
 20
22.1682957451518
 30
0.0
 11
-190.2497532292084
 21
-264.8645561786615
 31
0.0
  0
LINE
  5
105
330
4B
100
AcDbEntity
  8
1
  6
Continuous
 62
     3
100
AcDbLine
 10
-190.2497532292084
 20
-29.01250549016334
 30
0.0
 11
-185.2497532292084
 21
-29.01250549016334
 31
0.0
  0
LINE
  5
106
330
4B
100
AcDbEntity
  8
1
  6
Continuous
 62
     3
100
AcDbLine
 10
-190.2497532292084
 20
-167.4925054901634
 30
0.0
 11
-185.2497532292084
 21
-167.4925054901634
 31
0.0
  0
LINE
  5
107
330
4B
100
AcDbEntity
  8
1
  6
Continuous
 62
     3
100
AcDbLine
 10
199.7499954836126
 20
-213.6525054901634
 30
0.0
 11
204.7499954836126
 21
-213.6525054901634
 31
0.0
  0
LINE
  5
108
330
4B
100
AcDbEntity
  8
1
  6
Continuous
 62
     2
100
AcDbLine
 10
21.75024677079153
 20
-259.8964452048865
 30
0.0
 11
21.75024677079153
 21
-264.8635932810726
 31
0.0
  0
LINE
  5
109
330
4B
100
AcDbEntity
  8
1
  6
Continuous
 62
     4
100
AcDbLine
 10
204.7502467707916
 20
22.16829574515185
 30
0.0
 11
204.7499954836124
 21
-264.8645561786615
 31
0.0
  0
MTEXT
  5
10A
330
4B
100
AcDbEntity
  8
1
 62
     2
100
AcDbMText
 10
81.74999548431444
 20
-257.580180873152
 30
0.0
 40
2.0
 41
0.0
 71
     4
 72
     1
  1
 
  7
CONVERTER_11
 73
     1
 44
1.32052821128451
  0
MTEXT
  5
10B
330
4B
100
AcDbEntity
  8
1
 62
     2
100
AcDbMText
 10
126.7499954843144
 20
-257.580180873152
 30
0.0
 40
2.0
 41
0.0
 71
     4
 72
     1
  1
 
  7
CONVERTER_11
 73
     1
 44
1.32052821128451
  0
MTEXT
  5
10C
330
4B
100
AcDbEntity
  8
1
 62
     2
100
AcDbMText
 10
171.7499954843144
 20
-257.580180873152
 30
0.0
 40
2.0
 41
0.0
 71
     4
 72
     1
  1
 
  7
CONVERTER_11
 73
     1
 44
1.32052821128451
  0
MTEXT
  5
10D
330
4B
100
AcDbEntity
  8
1
 62
     3
100
AcDbMText
 10
-187.8676562558997
 20
-236.7429061078209
 30
0.0
 40
2.0
 41
0.0
 71
     5
 72
     1
  1
A
  7
CONVERTER_12
 73
     1
 44
1.32052821128451
  0
MTEXT
  5
10E
330
4B
100
AcDbEntity
  8
1
 62
     3
100
AcDbMText
 10
-187.7724674601905
 20
-190.5725054901634
 30
0.0
 40
2.0
 41
0.0
 71
     5
 72
     1
  1
B
  7
CONVERTER_12
 73
     1
 44
1.32052821128451
  0
MTEXT
  5
10F
330
4B
100
AcDbEntity
  8
1
 62
     3
100
AcDbMText
 10
-16.81236316734916
 20
-262.3904416940135
 30
0.0
 40
2.0
 41
0.0
 71
     5
 72
     1
  1
5
  7
CONVERTER_12
 73
     1
 44
1.32052821128451
  0
MTEXT
  5
110
330
4B
100
AcDbEntity
  8
1
 62
     3
100
AcDbMText
 10
-64.93733175645198
 20
-262.3102092091567
 30
0.0
 40
2.0
 41
0.0
 71
     5
 72
     1
  1
6
  7
CONVERTER_12
 73
     1
 44
1.32052821128451
  0
MTEXT
  5
111
330
4B
100
AcDbEntity
  8
1
 62
     3
100
AcDbMText
 10
-113.0623003455546
 20
-262.405000007798
 30
0.0
 40
2.0
 41
0.0
 71
     5
 72
     1
  1
7
  7
CONVERTER_12
 73
     1
 44
1.32052821128451
  0
MTEXT
  5
112
330
4B
100
AcDbEntity
  8
1
 62
     3
100
AcDbMText
 10
-161.1872689346572
 20
-262.405000007798
 30
0.0
 40
2.0
 41
0.0
 71
     5
 72
     1
  1
8
  7
CONVERTER_12
 73
     1
 44
1.32052821128451
  0
MTEXT
  5
113
330
4B
100
AcDbEntity
  8
1
 62
     3
100
AcDbMText
 10
202.2789633005265
 20
-5.92210487250571
 30
0.0
 40
2.0
 41
0.0
 71
     5
 72
     1
  1
F
  7
CONVERTER_12
 73
     1
 44
1.32052821128451
  0
MTEXT
  5
114
330
4B
100
AcDbEntity
  8
1
 62
     3
100
AcDbMText
 10
202.1892812946519
 20
-52.09250549016332
 30
0.0
 40
2.0
 41
0.0
 71
     5
 72
     1
  1
E
  7
CONVERTER_12
 73
     1
 44
1.32052821128451
  0
MTEXT
  5
115
330
4B
100
AcDbEntity
  8
1
 62
     3
100
AcDbMText
 10
202.2781766162645
 20
-98.25250549016332
 30
0.0
 40
2.0
 41
0.0
 71
     5
 72
     1
  1
D
  7
CONVERTER_12
 73
     1
 44
1.32052821128451
  0
MTEXT
  5
116
330
4B
100
AcDbEntity
  8
1
 62
     3
100
AcDbMText
 10
202.0972392359912
 20
-144.4125054901633
 30
0.0
 40
2.0
 41
0.0
 71
     5
 72
     1
  1
C
  7
CONVERTER_12
 73
     1
 44
1.32052821128451
  0
MTEXT
  5
117
330
4B
100
AcDbEntity
  8
1
 62
     3
100
AcDbMText
 10
-187.846022438693
 20
-144.4125054901633
 30
0.0
 40
2.0
 41
0.0
 71
     5
 72
     1
  1
C
  7
CONVERTER_12
 73
     1
 44
1.32052821128451
  0
MTEXT
  5
118
330
4B
100
AcDbEntity
  8
1
 62
     3
100
AcDbMText
 10
-187.7539803800323
 20
-98.25250549016332
 30
0.0
 40
2.0
 41
0.0
 71
     5
 72
     1
  1
D
  7
CONVERTER_12
 73
     1
 44
1.32052821128451
  0
MTEXT
  5
119
330
4B
100
AcDbEntity
  8
1
 62
     3
100
AcDbMText
 10
-188.0218463712629
 20
-52.09250549016332
 30
0.0
 40
2.0
 41
0.0
 71
     5
 72
     1
  1
E
  7
CONVERTER_12
 73
     1
 44
1.32052821128451
  0
MTEXT
  5
11A
330
4B
100
AcDbEntity
  8
1
 62
     3
100
AcDbMText
 10
-187.776400881501
 20
-5.92210487250571
 30
0.0
 40
2.0
 41
0.0
 71
     5
 72
     1
  1
F
  7
CONVERTER_12
 73
     1
 44
1.32052821128451
  0
MTEXT
  5
11B
330
4B
100
AcDbEntity
  8
1
 62
     3
100
AcDbMText
 10
175.6875111890612
 20
19.84641135735046
 30
0.0
 40
2.0
 41
0.0
 71
     5
 72
     1
  1
1
  7
CONVERTER_12
 73
     1
 44
1.32052821128451
  0
MTEXT
  5
11C
330
4B
100
AcDbEntity
  8
1
 62
     3
100
AcDbMText
 10
127.5625425999586
 20
19.69500489399127
 30
0.0
 40
2.0
 41
0.0
 71
     5
 72
     1
  1
2
  7
CONVERTER_12
 73
     1
 44
1.32052821128451
  0
MTEXT
  5
11D
330
4B
100
AcDbEntity
  8
1
 62
     3
100
AcDbMText
 10
79.43757401085594
 20
19.69532841207547
 30
0.0
 40
2.0
 41
0.0
 71
     5
 72
     1
  1
3
  7
CONVERTER_12
 73
     1
 44
1.32052821128451
  0
MTEXT
  5
11E
330
4B
100
AcDbEntity
  8
1
 62
     3
100
AcDbMText
 10
31.31260542175335
 20
19.62221332506869
 30
0.0
 40
2.0
 41
0.0
 71
     5
 72
     1
  1
4
  7
CONVERTER_12
 73
     1
 44
1.32052821128451
  0
MTEXT
  5
11F
330
4B
100
AcDbEntity
  8
1
 62
     3
100
AcDbMText
 10
-16.81236316734925
 20
19.69241674931857
 30
0.0
 40
2.0
 41
0.0
 71
     5
 72
     1
  1
5
  7
CONVERTER_12
 73
     1
 44
1.32052821128451
  0
MTEXT
  5
120
330
4B
100
AcDbEntity
  8
1
 62
     3
100
AcDbMText
 10
-64.93733175645198
 20
19.62383091548918
 30
0.0
 40
2.0
 41
0.0
 71
     5
 72
     1
  1
6
  7
CONVERTER_12
 73
     1
 44
1.32052821128451
  0
MTEXT
  5
121
330
4B
100
AcDbEntity
  8
1
 62
     3
100
AcDbMText
 10
-113.0623003455546
 20
19.63030127717116
 30
0.0
 40
2.0
 41
0.0
 71
     5
 72
     1
  1
7
  7
CONVERTER_12
 73
     1
 44
1.32052821128451
  0
MTEXT
  5
122
330
4B
100
AcDbEntity
  8
1
 62
     3
100
AcDbMText
 10
-161.1872689346572
 20
19.63030127717116
 30
0.0
 40
2.0
 41
0.0
 71
     5
 72
     1
  1
8
  7
CONVERTER_12
 73
     1
 44
1.32052821128451
  0
MTEXT
  5
123
330
4B
100
AcDbEntity
  8
1
 62
     3
100
AcDbMText
 10
202.2282221656238
 20
-190.5725054901634
 30
0.0
 40
2.0
 41
0.0
 71
     5
 72
     1
  1
B
  7
CONVERTER_12
 73
     1
 44
1.32052821128451
  0
MTEXT
  5
124
330
4B
100
AcDbEntity
  8
1
 62
     3
100
AcDbMText
 10
201.930855514566
 20
-236.7429061078209
 30
0.0
 40
2.0
 41
0.0
 71
     5
 72
     1
  1
A
  7
CONVERTER_12
 73
     1
 44
1.32052821128451
  0
ENDBLK
  5
4E
330
4B
100
AcDbEntity
  8
0
100
AcDbBlockEnd
  0
BLOCK
  5
50
330
4F
100
AcDbEntity
  8
0
100
AcDbBlockBegin
  2
_TD_WA50_de_gb_fr
 70
     0
 10
16.43098577512706
 20
-15.54170368826709
 30
0.0
  3
_TD_WA50_de_gb_fr
  1

  0
LINE
  5
125
330
4F
100
AcDbEntity
  8
1
  6
Continuous
 62
     7
100
AcDbLine
 10
95.29579863888449
 20
-244.5535786781622
 30
0.0
 11
80.32729709488859
 21
-244.5535786781622
 31
0.0
  0
LINE
  5
126
330
4F
100
AcDbEntity
  8
1
  6
Continuous
 62
     7
100
AcDbLine
 10
80.32729709488859
 20
-244.5535786781622
 30
0.0
 11
-35.94948184507615
 21
-244.5535786781622
 31
0.0
  0
LINE
  5
127
330
4F
100
AcDbEntity
  8
1
  6
Continuous
 62
     7
100
AcDbLine
 10
-35.94948184507615
 20
-244.5535786781622
 30
0.0
 11
-51.55173073505483
 21
-244.5535786781622
 31
0.0
  0
LINE
  5
128
330
4F
100
AcDbEntity
  8
1
  6
Continuous
 62
     2
100
AcDbLine
 10
-51.55173073505483
 20
-223.947566919409
 30
0.0
 11
80.32729709488859
 21
-223.947566919409
 31
0.0
  0
LINE
  5
129
330
4F
100
AcDbEntity
  8
1
  6
Continuous
 62
     2
100
AcDbLine
 10
80.32729709488859
 20
-223.947566919409
 30
0.0
 11
95.29579863888449
 21
-223.947566919409
 31
0.0
  0
LINE
  5
12A
330
4F
100
AcDbEntity
  8
1
  6
Continuous
 62
     2
100
AcDbLine
 10
95.29579863888449
 20
-223.947566919409
 30
0.0
 11
129.7999237058069
 21
-223.947566919409
 31
0.0
  0
LINE
  5
12B
330
4F
100
AcDbEntity
  8
1
  6
Continuous
 62
     2
100
AcDbLine
 10
80.32729709488859
 20
-230.4495708389923
 30
0.0
 11
95.29579863888449
 21
-230.4495708389923
 31
0.0
  0
LINE
  5
12C
330
4F
100
AcDbEntity
  8
1
  6
Continuous
 62
     2
100
AcDbLine
 10
95.29579863888449
 20
-230.4495708389923
 30
0.0
 11
129.7999237058069
 21
-230.4495708389923
 31
0.0
  0
LINE
  5
12D
330
4F
100
AcDbEntity
  8
1
  6
Continuous
 62
     2
100
AcDbLine
 10
129.7999237058072
 20
-132.6413645850624
 30
0.0
 11
-51.55173073505483
 21
-132.6413645850624
 31
0.0
  0
LINE
  5
12E
330
4F
100
AcDbEntity
  8
1
  6
Continuous
 62
     3
100
AcDbLine
 10
-35.94948184507615
 20
-161.2553056693351
 30
0.0
 11
-35.94948184507615
 21
-132.6413645850624
 31
0.0
  0
LINE
  5
12F
330
4F
100
AcDbEntity
  8
1
  6
Continuous
 62
     3
100
AcDbLine
 10
-35.94948184507615
 20
-244.5535786781622
 30
0.0
 11
-35.94948184507615
 21
-168.3226043708737
 31
0.0
  0
LINE
  5
130
330
4F
100
AcDbEntity
  8
1
  6
Continuous
 62
     7
100
AcDbLine
 10
-51.55173073505483
 20
-121.4324045850618
 30
0.0
 11
129.7999237058072
 21
-121.4324045850618
 31
0.0
  0
LINE
  5
131
330
4F
100
AcDbEntity
  8
1
  6
Continuous
 62
     7
100
AcDbLine
 10
129.7999237058072
 20
-121.4324045850618
 30
0.0
 11
129.7999237058072
 21
-132.6413645850624
 31
0.0
  0
LINE
  5
132
330
4F
100
AcDbEntity
  8
1
  6
Continuous
 62
     7
100
AcDbLine
 10
129.7999237058072
 20
-244.5535786781622
 30
0.0
 11
95.29579863888449
 21
-244.5535786781622
 31
0.0
  0
LINE
  5
133
330
4F
100
AcDbEntity
  8
1
  6
Continuous
 62
     7
100
AcDbLine
 10
-51.55173073505483
 20
-244.5535786781622
 30
0.0
 11
-51.55173073505483
 21
-121.4324045850618
 31
0.0
  0
LINE
  5
134
330
4F
100
AcDbEntity
  8
1
  6
Continuous
 62
     2
100
AcDbLine
 10
80.32729709488859
 20
-132.6413645850624
 30
0.0
 11
80.32729709488859
 21
-244.5535786781622
 31
0.0
  0
LINE
  5
135
330
4F
100
AcDbEntity
  8
1
  6
Continuous
 62
     3
100
AcDbLine
 10
129.7999237058072
 20
-167.5226043708736
 30
0.0
 11
-51.55173073505483
 21
-167.5226043708736
 31
0.0
  0
LINE
  5
136
330
4F
100
AcDbEntity
  8
1
  6
Continuous
 62
     3
100
AcDbLine
 10
-51.55173073505483
 20
-160.555305669335
 30
0.0
 11
129.7999237058072
 21
-160.555305669335
 31
0.0
  0
LINE
  5
137
330
4F
100
AcDbEntity
  8
1
  6
Continuous
 62
     2
100
AcDbLine
 10
-51.55173073505483
 20
-230.4495708389923
 30
0.0
 11
80.32729709488859
 21
-230.4495708389923
 31
0.0
  0
LINE
  5
138
330
4F
100
AcDbEntity
  8
1
  6
Continuous
 62
     2
100
AcDbLine
 10
-51.55173073505483
 20
-195.6742564591185
 30
0.0
 11
129.7999237058072
 21
-195.6742564591185
 31
0.0
  0
LINE
  5
139
330
4F
100
AcDbEntity
  8
1
  6
Continuous
 62
     3
100
AcDbLine
 10
95.29579863888449
 20
-132.6413645850624
 30
0.0
 11
95.29579863888449
 21
-244.5535786781622
 31
0.0
  0
LINE
  5
13A
330
4F
100
AcDbEntity
  8
1
  6
Continuous
 62
     2
100
AcDbLine
 10
-51.55173073505483
 20
-237.2515747585761
 30
0.0
 11
80.32729709488859
 21
-237.2515747585767
 31
0.0
  0
LINE
  5
13B
330
4F
100
AcDbEntity
  8
1
  6
Continuous
 62
     2
100
AcDbLine
 10
80.32729709488859
 20
-237.2515747585767
 30
0.0
 11
95.29579863888449
 21
-237.2515747585767
 31
0.0
  0
LINE
  5
13C
330
4F
100
AcDbEntity
  8
1
  6
Continuous
 62
     2
100
AcDbLine
 10
95.29579863888449
 20
-237.2515747585767
 30
0.0
 11
129.7999237058072
 21
-237.2515747585761
 31
0.0
  0
LINE
  5
13D
330
4F
100
AcDbEntity
  8
1
  6
Continuous
 62
     7
100
AcDbLine
 10
129.7999237058072
 20
-132.6413645850624
 30
0.0
 11
129.7999237058072
 21
-244.5535786781622
 31
0.0
  0
MTEXT
  5
13F
330
4F
100
AcDbEntity
  8
1
 62
     2
100
AcDbMText
 10
98.32231715371728
 20
-133.6948729893018
 30
0.0
 40
3.50280000000001
 41
0.0
 71
     1
 72
     1
  1
  1.0   \P 38        \P        \P  0,4+0,3(3SW)\P  7         \P  0,45       \P 86      \P       \P 6,7+0,3(3SW)\P  3  \P  3 \P 50 \P  \P 60\P  2,4:1\P  2,1
  7
CONVERTER_16
 73
     1
 44
1.20048019207683
  0
MTEXT
  5
141
330
4F
100
AcDbEntity
  8
1
 62
     2
100
AcDbMText
 10
-40.44587450936501
 20
-133.7132014465996
 30
0.0
 40
3.50280000000001
 41
0.0
 71
     1
 72
     1
  3
   Seilzugkraft / Capacity / Charge autoris\U+00e9e\P   Hub pro Kurbelumdrehung / Lift per crank turn / \P   Course par tour de manivelle\P   Seilaufnahme / Rope capacity / Cap. d'enroulement du c\U+00e2ble\P   maximale Lagenzahl / Rope positions / 
  3
Couches d'enroulement\P   Seilzugkraft / Capacity / Charge autoris\U+00e9e\P   Hub pro Kurbelumdrehung / Lift per crank turn / \P   Course par tour de manivelle\P   Seilaufnahme / Rope capacity / Cap. d'enroulement du c\U+00e2ble\P   Seildurchmesser
  3
 / Rope diameter / Diam\U+00e8tre de c\U+00e2ble\P   Mindestbruchkraft / Minimum Breaking Load /Force de rupture\P   Volllaststunden / Full charge lifetime / \P   Dur\U+00e9e de vie en pleine charge\P   Kurbeldruck / Crank force / Effort manivelle\P
  1
   \U+00dcbersetzung / Gear ratio / Rapport\P   Gewicht / Weight / Poids
  7
CONVERTER_17
 73
     1
 44
1.20048019207683
  0
MTEXT
  5
142
330
4F
100
AcDbEntity
  8
1
 62
     2
100
AcDbMText
 10
82.70619252139733
 20
-133.7132014465996
 30
0.0
 40
3.50280000000001
 41
0.0
 71
     1
 72
     1
  1
kN\Pmm\P \Pm\P \PkN\Pmm\P \Pm \Pmm\PkN\Ph\P \PN\P \Pkg
  7
CONVERTER_16
 73
     1
 44
1.20048019207683
  0
MTEXT
  5
144
330
4F
100
AcDbEntity
  8
1
 62
     7
100
AcDbMText
 10
-50.1301838803181
 20
-129.5831620840091
 30
0.0
 40
4.90392000000001
 41
0.0
 71
     7
 72
     1
  1
Typ(e) WA100 Technische Daten/Technical data/Caract\U+00e9ristiques techniques
  7
CONVERTER_18
 73
     1
 44
1.32052821128451
  0
MTEXT
  5
146
330
4F
100
AcDbEntity
  8
1
 62
     3
100
AcDbMText
 10
-37.95085642812342
 20
-159.5905018421584
 30
0.0
 40
2.642112
 41
0.0
 71
     7
 72
     1
  1
1. Seillage\P1st rope position\PSur la 1\U+00e8re couche
  7
CONVERTER_19
 11
0.0
 21
1.0
 31
0.0
 73
     1
 44
0.96038415366146
  0
MTEXT
  5
147
330
4F
100
AcDbEntity
  8
1
 62
     3
100
AcDbMText
 10
-37.95085642812342
 20
-195.7100126319407
 30
0.0
 40
2.642112
 41
0.0
 71
     7
 72
     1
  1
Oberste Lage\PLast rope position\PSur la dern. couche
  7
CONVERTER_19
 11
0.0
 21
1.0
 31
0.0
 73
     1
 44
0.96038415366146
  0
ENDBLK
  5
51
330
4F
100
AcDbEntity
  8
0
100
AcDbBlockEnd
  0
BLOCK
  5
1CC
330
1C3
100
AcDbEntity
  8
0
100
AcDbBlockBegin
  2
*D4
 70
     1
 10
0.0
 20
0.0
 30
0.0
  3
*D4
  1

  0
LINE
  5
1C4
330
1C3
100
AcDbEntity
  8
1
  6
Continuous
 62
     3
100
AcDbLine
 10
178.7580372881393
 20
-27.89716385654323
 30
0.0
 11
192.7580372881393
 21
-27.89716385654323
 31
0.0
  0
LINE
  5
1C5
330
1C3
100
AcDbEntity
  8
1
  6
Continuous
 62
     3
100
AcDbLine
 10
162.7604547577653
 20
-27.89716385654323
 30
0.0
 11
178.7580372881393
 21
-27.89716385654323
 31
0.0
  0
LINE
  5
1C6
330
1C3
100
AcDbEntity
  8
1
  6
Continuous
 62
     3
100
AcDbLine
 10
148.7604547577653
 20
-27.89716385654323
 30
0.0
 11
162.7604547577653
 21
-27.89716385654323
 31
0.0
  0
LINE
  5
1C7
330
1C3
100
AcDbEntity
  8
1
  6
Continuous
 62
     3
100
AcDbLine
 10
178.7580372881393
 20
-91.58316034453372
 30
0.0
 11
178.7580372881393
 21
-23.89716385654323
 31
0.0
  0
LINE
  5
1C8
330
1C3
100
AcDbEntity
  8
1
  6
Continuous
 62
     3
100
AcDbLine
 10
162.7604547577653
 20
-64.08316034453377
 30
0.0
 11
162.7604547577653
 21
-23.89716385654323
 31
0.0
  0
SOLID
  5
1C9
330
1C3
100
AcDbEntity
  8
1
 62
     3
100
AcDbTrace
 10
155.7604547577653
 20
-28.818731339655
 30
0.0
 11
155.7604547577653
 21
-26.97559637343146
 31
0.0
 12
162.7604547577653
 22
-27.89716385654323
 32
0.0
 13
162.7604547577653
 23
-27.89716385654323
 33
0.0
  0
SOLID
  5
1CA
330
1C3
100
AcDbEntity
  8
1
 62
     3
100
AcDbTrace
 10
185.7580372881393
 20
-26.97559637343146
 30
0.0
 11
185.7580372881393
 21
-28.81873133965501
 31
0.0
 12
178.7580372881393
 22
-27.89716385654323
 32
0.0
 13
178.7580372881393
 23
-27.89716385654323
 33
0.0
  0
MTEXT
  5
1CB
330
1C3
100
AcDbEntity
  8
1
 62
     2
100
AcDbMText
 10
166.5592460229523
 20
-24.69716385654323
 30
0.0
 40
7.0
 41
0.0
 71
     7
 72
     1
  1
16
  7
CONVERTER_12
 11
0.9999999999970619
 21
2.424068405545306E-6
 31
0.0
 73
     1
 44
0.60024009603842
  0
ENDBLK
  5
1CD
330
1C3
100
AcDbEntity
  8
0
100
AcDbBlockEnd
  0
BLOCK
  5
1D7
330
1D0
100
AcDbEntity
  8
0
100
AcDbBlockBegin
  2
*D5
 70
     1
 10
0.0
 20
0.0
 30
0.0
  3
*D5
  1

  0
LINE
  5
1D1
330
1D0
100
AcDbEntity
  8
1
  6
Continuous
 62
     3
100
AcDbLine
 10
162.7604547577653
 20
-356.1331603445338
 30
0.0
 11
247.7604547577653
 21
-356.1331603445338
 31
0.0
  0
LINE
  5
1D2
330
1D0
100
AcDbEntity
  8
1
  6
Continuous
 62
     3
100
AcDbLine
 10
162.7604547577653
 20
-264.0831603445338
 30
0.0
 11
162.7604547577653
 21
-360.1331603445338
 31
0.0
  0
LINE
  5
1D3
330
1D0
100
AcDbEntity
  8
1
  6
Continuous
 62
     3
100
AcDbLine
 10
247.7604547577653
 20
-327.8331603445338
 30
0.0
 11
247.7604547577653
 21
-360.1331603445338
 31
0.0
  0
SOLID
  5
1D4
330
1D0
100
AcDbEntity
  8
1
 62
     3
100
AcDbTrace
 10
169.7604547577653
 20
-355.211592861422
 30
0.0
 11
169.7604547577653
 21
-357.0547278276455
 31
0.0
 12
162.7604547577653
 22
-356.1331603445338
 32
0.0
 13
162.7604547577653
 23
-356.1331603445338
 33
0.0
  0
SOLID
  5
1D5
330
1D0
100
AcDbEntity
  8
1
 62
     3
100
AcDbTrace
 10
240.7604547577653
 20
-357.0547278276455
 30
0.0
 11
240.7604547577653
 21
-355.211592861422
 31
0.0
 12
247.7604547577653
 22
-356.1331603445338
 32
0.0
 13
247.7604547577653
 23
-356.1331603445338
 33
0.0
  0
MTEXT
  5
1D6
330
1D0
100
AcDbEntity
  8
1
 62
     2
100
AcDbMText
 10
200.0104547577653
 20
-352.9331603445338
 30
0.0
 40
7.0
 41
0.0
 71
     7
 72
     1
  1
85
  7
CONVERTER_12
 11
0.9999999999970619
 21
2.424068405545306E-6
 31
0.0
 73
     1
 44
0.60024009603842
  0
ENDBLK
  5
1D8
330
1D0
100
AcDbEntity
  8
0
100
AcDbBlockEnd
  0
BLOCK
  5
1E2
330
1DB
100
AcDbEntity
  8
0
100
AcDbBlockBegin
  2
*D6
 70
     1
 10
0.0
 20
0.0
 30
0.0
  3
*D6
  1

  0
LINE
  5
1DC
330
1DB
100
AcDbEntity
  8
1
  6
Continuous
 62
     3
100
AcDbLine
 10
162.7604547577654
 20
-376.1331603445338
 30
0.0
 11
347.7604547577658
 21
-376.1331603445338
 31
0.0
  0
LINE
  5
1DD
330
1DB
100
AcDbEntity
  8
1
  6
Continuous
 62
     3
100
AcDbLine
 10
162.7604547577654
 20
-264.0831603445338
 30
0.0
 11
162.7604547577654
 21
-380.1331603445338
 31
0.0
  0
LINE
  5
1DE
330
1DB
100
AcDbEntity
  8
1
  6
Continuous
 62
     3
100
AcDbLine
 10
347.7604547577658
 20
-319.0831603445338
 30
0.0
 11
347.7604547577658
 21
-380.1331603445338
 31
0.0
  0
SOLID
  5
1DF
330
1DB
100
AcDbEntity
  8
1
 62
     3
100
AcDbTrace
 10
169.7604547577654
 20
-375.211592861422
 30
0.0
 11
169.7604547577654
 21
-377.0547278276455
 31
0.0
 12
162.7604547577654
 22
-376.1331603445338
 32
0.0
 13
162.7604547577654
 23
-376.1331603445338
 33
0.0
  0
SOLID
  5
1E0
330
1DB
100
AcDbEntity
  8
1
 62
     3
100
AcDbTrace
 10
340.7604547577658
 20
-377.0547278276455
 30
0.0
 11
340.7604547577658
 21
-375.211592861422
 31
0.0
 12
347.7604547577658
 22
-376.1331603445338
 32
0.0
 13
347.7604547577658
 23
-376.1331603445338
 33
0.0
  0
MTEXT
  5
1E1
330
1DB
100
AcDbEntity
  8
1
 62
     2
100
AcDbMText
 10
248.8900555804179
 20
-372.9331603445338
 30
0.0
 40
7.0
 41
0.0
 71
     7
 72
     1
  1
185
  7
CONVERTER_12
 11
0.9999999999970619
 21
2.424068405545306E-6
 31
0.0
 73
     1
 44
0.60024009603842
  0
ENDBLK
  5
1E3
330
1DB
100
AcDbEntity
  8
0
100
AcDbBlockEnd
  0
BLOCK
  5
1ED
330
1E6
100
AcDbEntity
  8
0
100
AcDbBlockBegin
  2
*D7
 70
     1
 10
0.0
 20
0.0
 30
0.0
  3
*D7
  1

  0
LINE
  5
1E7
330
1E6
100
AcDbEntity
  8
1
  6
Continuous
 62
     3
100
AcDbLine
 10
162.7604547577653
 20
-336.1331603445338
 30
0.0
 11
244.7604547577653
 21
-336.1331603445338
 31
0.0
  0
LINE
  5
1E8
330
1E6
100
AcDbEntity
  8
1
  6
Continuous
 62
     3
100
AcDbLine
 10
162.7604547577653
 20
-264.0831603445338
 30
0.0
 11
162.7604547577653
 21
-340.1331603445338
 31
0.0
  0
LINE
  5
1E9
330
1E6
100
AcDbEntity
  8
1
  6
Continuous
 62
     3
100
AcDbLine
 10
244.7604547577653
 20
-236.0831603445338
 30
0.0
 11
244.7604547577653
 21
-340.1331603445338
 31
0.0
  0
SOLID
  5
1EA
330
1E6
100
AcDbEntity
  8
1
 62
     3
100
AcDbTrace
 10
169.7604547577653
 20
-335.211592861422
 30
0.0
 11
169.7604547577653
 21
-337.0547278276455
 31
0.0
 12
162.7604547577653
 22
-336.1331603445338
 32
0.0
 13
162.7604547577653
 23
-336.1331603445338
 33
0.0
  0
SOLID
  5
1EB
330
1E6
100
AcDbEntity
  8
1
 62
     3
100
AcDbTrace
 10
237.7604547577653
 20
-337.0547278276455
 30
0.0
 11
237.7604547577653
 21
-335.211592861422
 31
0.0
 12
244.7604547577653
 22
-336.1331603445338
 32
0.0
 13
244.7604547577653
 23
-336.1331603445338
 33
0.0
  0
MTEXT
  5
1EC
330
1E6
100
AcDbEntity
  8
1
 62
     2
100
AcDbMText
 10
198.5104547577653
 20
-332.9331603445338
 30
0.0
 40
7.0
 41
0.0
 71
     7
 72
     1
  1
82
  7
CONVERTER_12
 11
0.9999999999970619
 21
2.424068405545306E-6
 31
0.0
 73
     1
 44
0.60024009603842
  0
ENDBLK
  5
1EE
330
1E6
100
AcDbEntity
  8
0
100
AcDbBlockEnd
  0
BLOCK
  5
1FA
330
1F1
100
AcDbEntity
  8
0
100
AcDbBlockBegin
  2
*D8
 70
     1
 10
0.0
 20
0.0
 30
0.0
  3
*D8
  1

  0
LINE
  5
1F2
330
1F1
100
AcDbEntity
  8
1
  6
Continuous
 62
     3
100
AcDbLine
 10
147.737013366129
 20
-285.8836492851697
 30
0.0
 11
162.7604547577653
 21
-285.8836492851697
 31
0.0
  0
LINE
  5
1F3
330
1F1
100
AcDbEntity
  8
1
  6
Continuous
 62
     3
100
AcDbLine
 10
162.7604547577653
 20
-285.8836492851697
 30
0.0
 11
167.7604547577653
 21
-285.8836492851697
 31
0.0
  0
LINE
  5
1F4
330
1F1
100
AcDbEntity
  8
1
  6
Continuous
 62
     3
100
AcDbLine
 10
167.7604547577653
 20
-285.8836492851697
 30
0.0
 11
181.7604547577653
 21
-285.8836492851697
 31
0.0
  0
LINE
  5
1F5
330
1F1
100
AcDbEntity
  8
1
  6
Continuous
 62
     3
100
AcDbLine
 10
162.7604547577653
 20
-264.0831603445337
 30
0.0
 11
162.7604547577653
 21
-289.8836492851697
 31
0.0
  0
LINE
  5
1F6
330
1F1
100
AcDbEntity
  8
1
  6
Continuous
 62
     3
100
AcDbLine
 10
167.7604547577653
 20
-261.5831603445337
 30
0.0
 11
167.7604547577653
 21
-289.8836492851697
 31
0.0
  0
SOLID
  5
1F7
330
1F1
100
AcDbEntity
  8
1
 62
     3
100
AcDbTrace
 10
155.7604547577653
 20
-286.8052167682814
 30
0.0
 11
155.7604547577653
 21
-284.9620818020579
 31
0.0
 12
162.7604547577653
 22
-285.8836492851697
 32
0.0
 13
162.7604547577653
 23
-285.8836492851697
 33
0.0
  0
SOLID
  5
1F8
330
1F1
100
AcDbEntity
  8
1
 62
     3
100
AcDbTrace
 10
174.7604547577653
 20
-284.9620818020579
 30
0.0
 11
174.7604547577653
 21
-286.8052167682814
 31
0.0
 12
167.7604547577653
 22
-285.8836492851697
 32
0.0
 13
167.7604547577653
 23
-285.8836492851697
 33
0.0
  0
MTEXT
  5
1F9
330
1F1
100
AcDbEntity
  8
1
 62
     2
100
AcDbMText
 10
147.737013366129
 20
-282.6836492851697
 30
0.0
 40
7.0
 41
0.0
 71
     7
 72
     1
  1
5
  7
CONVERTER_12
 11
0.9999999999970619
 21
2.424068405545306E-6
 31
0.0
 73
     1
 44
0.60024009603842
  0
ENDBLK
  5
1FB
330
1F1
100
AcDbEntity
  8
0
100
AcDbBlockEnd
  0
BLOCK
  5
205
330
1FE
100
AcDbEntity
  8
0
100
AcDbBlockBegin
  2
*D9
 70
     1
 10
0.0
 20
0.0
 30
0.0
  3
*D9
  1

  0
LINE
  5
1FF
330
1FE
100
AcDbEntity
  8
1
  6
Continuous
 62
     3
100
AcDbLine
 10
-17.21586103311288
 20
12.10283614345678
 30
0.0
 11
86.28413896688717
 21
12.10283614345678
 31
0.0
  0
LINE
  5
200
330
1FE
100
AcDbEntity
  8
1
  6
Continuous
 62
     3
100
AcDbLine
 10
86.28413896688717
 20
-74.08316034453372
 30
0.0
 11
86.28413896688717
 21
16.10283614345678
 31
0.0
  0
LINE
  5
201
330
1FE
100
AcDbEntity
  8
1
  6
Continuous
 62
     3
100
AcDbLine
 10
-17.21586103311288
 20
-74.08316034453372
 30
0.0
 11
-17.21586103311288
 21
16.10283614345678
 31
0.0
  0
SOLID
  5
202
330
1FE
100
AcDbEntity
  8
1
 62
     3
100
AcDbTrace
 10
-10.21586103311288
 20
13.02440362656855
 30
0.0
 11
-10.21586103311288
 21
11.18126866034501
 31
0.0
 12
-17.21586103311288
 22
12.10283614345678
 32
0.0
 13
-17.21586103311288
 23
12.10283614345678
 33
0.0
  0
SOLID
  5
203
330
1FE
100
AcDbEntity
  8
1
 62
     3
100
AcDbTrace
 10
79.28413896688717
 20
11.18126866034501
 30
0.0
 11
79.28413896688717
 21
13.02440362656855
 31
0.0
 12
86.28413896688717
 22
12.10283614345678
 32
0.0
 13
86.28413896688717
 23
12.10283614345678
 33
0.0
  0
MTEXT
  5
204
330
1FE
100
AcDbEntity
  8
1
 62
     2
100
AcDbMText
 10
20.33934723902778
 20
16.00283614345678
 30
0.0
 40
7.0
 41
0.0
 71
     7
 72
     1
  1
103,5
  7
CONVERTER_12
 11
0.9999999999970619
 21
2.424068405545306E-6
 31
0.0
 73
     1
 44
0.60024009603842
  0
ENDBLK
  5
206
330
1FE
100
AcDbEntity
  8
0
100
AcDbBlockEnd
  0
BLOCK
  5
210
330
209
100
AcDbEntity
  8
0
100
AcDbBlockBegin
  2
*D10
 70
     1
 10
0.0
 20
0.0
 30
0.0
  3
*D10
  1

  0
LINE
  5
20A
330
209
100
AcDbEntity
  8
1
  6
Continuous
 62
     3
100
AcDbLine
 10
-12.46586103311284
 20
-7.89716385654322
 30
0.0
 11
81.53413896688718
 21
-7.89716385654322
 31
0.0
  0
LINE
  5
20B
330
209
100
AcDbEntity
  8
1
  6
Continuous
 62
     3
100
AcDbLine
 10
81.53413896688718
 20
-99.58316034453372
 30
0.0
 11
81.53413896688718
 21
-3.89716385654322
 31
0.0
  0
LINE
  5
20C
330
209
100
AcDbEntity
  8
1
  6
Continuous
 62
     3
100
AcDbLine
 10
-12.46586103311284
 20
-99.58316034453372
 30
0.0
 11
-12.46586103311284
 21
-3.89716385654322
 31
0.0
  0
SOLID
  5
20D
330
209
100
AcDbEntity
  8
1
 62
     3
100
AcDbTrace
 10
-5.46586103311284
 20
-6.97559637343145
 30
0.0
 11
-5.46586103311284
 21
-8.81873133965499
 31
0.0
 12
-12.46586103311284
 22
-7.89716385654322
 32
0.0
 13
-12.46586103311284
 23
-7.89716385654322
 33
0.0
  0
SOLID
  5
20E
330
209
100
AcDbEntity
  8
1
 62
     3
100
AcDbTrace
 10
74.53413896688718
 20
-8.81873133965499
 30
0.0
 11
74.53413896688718
 21
-6.97559637343145
 31
0.0
 12
81.53413896688718
 22
-7.89716385654322
 32
0.0
 13
81.53413896688718
 23
-7.89716385654322
 33
0.0
  0
MTEXT
  5
20F
330
209
100
AcDbEntity
  8
1
 62
     2
100
AcDbMText
 10
27.13149448718136
 20
-4.69716385654322
 30
0.0
 40
7.0
 41
0.0
 71
     7
 72
     1
  1
94
  7
CONVERTER_12
 11
0.9999999999970619
 21
2.424068405545306E-6
 31
0.0
 73
     1
 44
0.60024009603842
  0
ENDBLK
  5
211
330
209
100
AcDbEntity
  8
0
100
AcDbBlockEnd
  0
BLOCK
  5
21B
330
214
100
AcDbEntity
  8
0
100
AcDbBlockBegin
  2
*D11
 70
     1
 10
0.0
 20
0.0
 30
0.0
  3
*D11
  1

  0
LINE
  5
215
330
214
100
AcDbEntity
  8
1
  6
Continuous
 62
     3
100
AcDbLine
 10
-7.21586103311281
 20
-27.89716385654322
 30
0.0
 11
76.28413896688717
 21
-27.89716385654322
 31
0.0
  0
LINE
  5
216
330
214
100
AcDbEntity
  8
1
  6
Continuous
 62
     3
100
AcDbLine
 10
76.28413896688717
 20
-63.08316034453373
 30
0.0
 11
76.28413896688717
 21
-23.89716385654322
 31
0.0
  0
LINE
  5
217
330
214
100
AcDbEntity
  8
1
  6
Continuous
 62
     3
100
AcDbLine
 10
-7.21586103311283
 20
-63.08316034453373
 30
0.0
 11
-7.21586103311283
 21
-23.89716385654322
 31
0.0
  0
SOLID
  5
218
330
214
100
AcDbEntity
  8
1
 62
     3
100
AcDbTrace
 10
-0.21586103311281
 20
-26.97559637343145
 30
0.0
 11
-0.21586103311281
 21
-28.81873133965499
 31
0.0
 12
-7.21586103311281
 22
-27.89716385654322
 32
0.0
 13
-7.21586103311281
 23
-27.89716385654322
 33
0.0
  0
SOLID
  5
219
330
214
100
AcDbEntity
  8
1
 62
     3
100
AcDbTrace
 10
69.28413896688717
 20
-28.81873133965499
 30
0.0
 11
69.28413896688717
 21
-26.97559637343145
 31
0.0
 12
76.28413896688717
 22
-27.89716385654322
 32
0.0
 13
76.28413896688717
 23
-27.89716385654322
 33
0.0
  0
MTEXT
  5
21A
330
214
100
AcDbEntity
  8
1
 62
     2
100
AcDbMText
 10
24.90913896688716
 20
-23.99716385654322
 30
0.0
 40
7.0
 41
0.0
 71
     7
 72
     1
  1
83,5
  7
CONVERTER_12
 11
0.9999999999970619
 21
2.424068405545306E-6
 31
0.0
 73
     1
 44
0.60024009603842
  0
ENDBLK
  5
21C
330
214
100
AcDbEntity
  8
0
100
AcDbBlockEnd
  0
BLOCK
  5
226
330
21F
100
AcDbEntity
  8
0
100
AcDbBlockBegin
  2
*D12
 70
     1
 10
0.0
 20
0.0
 30
0.0
  3
*D12
  1

  0
LINE
  5
220
330
21F
100
AcDbEntity
  8
1
  6
Continuous
 62
     3
100
AcDbLine
 10
11.5341389668872
 20
-47.89716385654323
 30
0.0
 11
34.53413896688717
 21
-47.89716385654323
 31
0.0
  0
LINE
  5
221
330
21F
100
AcDbEntity
  8
1
  6
Continuous
 62
     3
100
AcDbLine
 10
34.53413896688717
 20
-59.24539860428675
 30
0.0
 11
34.53413896688717
 21
-43.89716385654323
 31
0.0
  0
LINE
  5
222
330
21F
100
AcDbEntity
  8
1
  6
Continuous
 62
     3
100
AcDbLine
 10
11.5341389668872
 20
-83.08316034453372
 30
0.0
 11
11.5341389668872
 21
-43.89716385654323
 31
0.0
  0
SOLID
  5
223
330
21F
100
AcDbEntity
  8
1
 62
     3
100
AcDbTrace
 10
18.5341389668872
 20
-46.97559637343146
 30
0.0
 11
18.5341389668872
 21
-48.818731339655
 31
0.0
 12
11.5341389668872
 22
-47.89716385654323
 32
0.0
 13
11.5341389668872
 23
-47.89716385654323
 33
0.0
  0
SOLID
  5
224
330
21F
100
AcDbEntity
  8
1
 62
     3
100
AcDbTrace
 10
27.53413896688717
 20
-48.818731339655
 30
0.0
 11
27.53413896688717
 21
-46.97559637343146
 31
0.0
 12
34.53413896688717
 22
-47.89716385654323
 32
0.0
 13
34.53413896688717
 23
-47.89716385654323
 33
0.0
  0
MTEXT
  5
225
330
21F
100
AcDbEntity
  8
1
 62
     2
100
AcDbMText
 10
17.7841389668872
 20
-44.69716385654323
 30
0.0
 40
7.0
 41
0.0
 71
     7
 72
     1
  1
23
  7
CONVERTER_12
 11
0.9999999999970619
 21
2.424068405545306E-6
 31
0.0
 73
     1
 44
0.60024009603842
  0
ENDBLK
  5
227
330
21F
100
AcDbEntity
  8
0
100
AcDbBlockEnd
  0
BLOCK
  5
231
330
22A
100
AcDbEntity
  8
0
100
AcDbBlockBegin
  2
*D13
 70
     1
 10
0.0
 20
0.0
 30
0.0
  3
*D13
  1

  0
LINE
  5
22B
330
22A
100
AcDbEntity
  8
1
  6
Continuous
 62
     3
100
AcDbLine
 10
-101.7658610331129
 20
-264.0831603445337
 30
0.0
 11
-101.7658610331129
 21
-64.0831603445337
 31
0.0
  0
LINE
  5
22C
330
22A
100
AcDbEntity
  8
1
  6
Continuous
 62
     3
100
AcDbLine
 10
-7.2158610331129
 20
-64.0831603445337
 30
0.0
 11
-105.7658610331129
 21
-64.0831603445337
 31
0.0
  0
LINE
  5
22D
330
22A
100
AcDbEntity
  8
1
  6
Continuous
 62
     3
100
AcDbLine
 10
-7.2158610331129
 20
-264.0831603445337
 30
0.0
 11
-105.7658610331129
 21
-264.0831603445337
 31
0.0
  0
SOLID
  5
22E
330
22A
100
AcDbEntity
  8
1
 62
     3
100
AcDbTrace
 10
-100.8442935500011
 20
-71.0831603445337
 30
0.0
 11
-102.6874285162247
 21
-71.0831603445337
 31
0.0
 12
-101.7658610331129
 22
-64.0831603445337
 32
0.0
 13
-101.7658610331129
 23
-64.0831603445337
 33
0.0
  0
SOLID
  5
22F
330
22A
100
AcDbEntity
  8
1
 62
     3
100
AcDbTrace
 10
-102.6874285162247
 20
-257.0831603445337
 30
0.0
 11
-100.8442935500011
 21
-257.0831603445337
 31
0.0
 12
-101.7658610331129
 22
-264.0831603445337
 32
0.0
 13
-101.7658610331129
 23
-264.0831603445337
 33
0.0
  0
MTEXT
  5
230
330
22A
100
AcDbEntity
  8
1
 62
     2
100
AcDbMText
 10
-104.9658610331129
 20
-173.1013866540247
 30
0.0
 40
7.0
 41
0.0
 71
     7
 72
     1
  1
200
  7
CONVERTER_12
 11
0.0
 21
1.0
 31
0.0
 73
     1
 44
0.60024009603842
  0
ENDBLK
  5
232
330
22A
100
AcDbEntity
  8
0
100
AcDbBlockEnd
  0
BLOCK
  5
23C
330
235
100
AcDbEntity
  8
0
100
AcDbBlockBegin
  2
*D14
 70
     1
 10
0.0
 20
0.0
 30
0.0
  3
*D14
  1

  0
LINE
  5
236
330
235
100
AcDbEntity
  8
1
  6
Continuous
 62
     3
100
AcDbLine
 10
-81.76586103311288
 20
-253.0831603445337
 30
0.0
 11
-81.76586103311288
 21
-75.08316034453367
 31
0.0
  0
LINE
  5
237
330
235
100
AcDbEntity
  8
1
  6
Continuous
 62
     3
100
AcDbLine
 10
-18.21586103311287
 20
-75.08316034453367
 30
0.0
 11
-85.76586103311288
 21
-75.08316034453367
 31
0.0
  0
LINE
  5
238
330
235
100
AcDbEntity
  8
1
  6
Continuous
 62
     3
100
AcDbLine
 10
-18.2158610331129
 20
-253.0831603445337
 30
0.0
 11
-85.76586103311288
 21
-253.0831603445337
 31
0.0
  0
SOLID
  5
239
330
235
100
AcDbEntity
  8
1
 62
     3
100
AcDbTrace
 10
-80.84429355000111
 20
-82.08316034453367
 30
0.0
 11
-82.68742851622466
 21
-82.08316034453367
 31
0.0
 12
-81.76586103311288
 22
-75.08316034453367
 32
0.0
 13
-81.76586103311288
 23
-75.08316034453367
 33
0.0
  0
SOLID
  5
23A
330
235
100
AcDbEntity
  8
1
 62
     3
100
AcDbTrace
 10
-82.68742851622466
 20
-246.0831603445337
 30
0.0
 11
-80.84429355000111
 21
-246.0831603445337
 31
0.0
 12
-81.76586103311288
 22
-253.0831603445337
 32
0.0
 13
-81.76586103311288
 23
-253.0831603445337
 33
0.0
  0
MTEXT
  5
23B
330
235
100
AcDbEntity
  8
1
 62
     2
100
AcDbMText
 10
-84.96586103311287
 20
-172.0445174728081
 30
0.0
 40
7.0
 41
0.0
 71
     7
 72
     1
  1
178
  7
CONVERTER_12
 11
0.0
 21
1.0
 31
0.0
 73
     1
 44
0.60024009603842
  0
ENDBLK
  5
23D
330
235
100
AcDbEntity
  8
0
100
AcDbBlockEnd
  0
BLOCK
  5
247
330
240
100
AcDbEntity
  8
0
100
AcDbBlockBegin
  2
*D15
 70
     1
 10
0.0
 20
0.0
 30
0.0
  3
*D15
  1

  0
LINE
  5
241
330
240
100
AcDbEntity
  8
1
  6
Continuous
 62
     3
100
AcDbLine
 10
-61.76586103311288
 20
-239.0831603445338
 30
0.0
 11
-61.76586103311288
 21
-89.08316034453372
 31
0.0
  0
LINE
  5
242
330
240
100
AcDbEntity
  8
1
  6
Continuous
 62
     3
100
AcDbLine
 10
-1.96586103311287
 20
-89.08316034453372
 30
0.0
 11
-65.76586103311288
 21
-89.08316034453372
 31
0.0
  0
LINE
  5
243
330
240
100
AcDbEntity
  8
1
  6
Continuous
 62
     3
100
AcDbLine
 10
-1.96586103311287
 20
-239.0831603445338
 30
0.0
 11
-65.76586103311288
 21
-239.0831603445338
 31
0.0
  0
SOLID
  5
244
330
240
100
AcDbEntity
  8
1
 62
     3
100
AcDbTrace
 10
-60.84429355000112
 20
-96.08316034453372
 30
0.0
 11
-62.68742851622466
 21
-96.08316034453372
 31
0.0
 12
-61.76586103311288
 22
-89.08316034453372
 32
0.0
 13
-61.76586103311288
 23
-89.08316034453372
 33
0.0
  0
SOLID
  5
245
330
240
100
AcDbEntity
  8
1
 62
     3
100
AcDbTrace
 10
-62.68742851622466
 20
-232.0831603445338
 30
0.0
 11
-60.84429355000111
 21
-232.0831603445338
 31
0.0
 12
-61.76586103311288
 22
-239.0831603445338
 32
0.0
 13
-61.76586103311288
 23
-239.0831603445338
 33
0.0
  0
MTEXT
  5
246
330
240
100
AcDbEntity
  8
1
 62
     2
100
AcDbMText
 10
-64.96586103311287
 20
-171.5600986298331
 30
0.0
 40
7.0
 41
0.0
 71
     7
 72
     1
  1
150
  7
CONVERTER_12
 11
0.0
 21
1.0
 31
0.0
 73
     1
 44
0.60024009603842
  0
ENDBLK
  5
248
330
240
100
AcDbEntity
  8
0
100
AcDbBlockEnd
  0
BLOCK
  5
252
330
24B
100
AcDbEntity
  8
0
100
AcDbBlockBegin
  2
*D16
 70
     1
 10
0.0
 20
0.0
 30
0.0
  3
*D16
  1

  0
LINE
  5
24C
330
24B
100
AcDbEntity
  8
1
  6
Continuous
 62
     3
100
AcDbLine
 10
183.7604547577653
 20
-51.75851990960922
 30
0.0
 11
203.7604547577653
 21
-51.75851990960922
 31
0.0
  0
LINE
  5
24D
330
24B
100
AcDbEntity
  8
1
  6
Continuous
 62
     3
100
AcDbLine
 10
203.7604547577653
 20
-84.08316034453372
 30
0.0
 11
203.7604547577653
 21
-47.75851990960922
 31
0.0
  0
LINE
  5
24E
330
24B
100
AcDbEntity
  8
1
  6
Continuous
 62
     3
100
AcDbLine
 10
183.7604547577653
 20
-84.08316034453372
 30
0.0
 11
183.7604547577653
 21
-47.75851990960922
 31
0.0
  0
SOLID
  5
24F
330
24B
100
AcDbEntity
  8
1
 62
     3
100
AcDbTrace
 10
190.7604547577653
 20
-50.83695242649745
 30
0.0
 11
190.7604547577653
 21
-52.68008739272099
 31
0.0
 12
183.7604547577653
 22
-51.75851990960922
 32
0.0
 13
183.7604547577653
 23
-51.75851990960922
 33
0.0
  0
SOLID
  5
250
330
24B
100
AcDbEntity
  8
1
 62
     3
100
AcDbTrace
 10
196.7604547577653
 20
-52.68008739272099
 30
0.0
 11
196.7604547577653
 21
-50.83695242649745
 31
0.0
 12
203.7604547577653
 22
-51.75851990960922
 32
0.0
 13
203.7604547577653
 23
-51.75851990960922
 33
0.0
  0
MTEXT
  5
251
330
24B
100
AcDbEntity
  8
1
 62
     2
100
AcDbMText
 10
188.5104547577653
 20
-48.55851990960922
 30
0.0
 40
7.0
 41
0.0
 71
     7
 72
     1
  1
20
  7
CONVERTER_12
 11
0.9999999999970619
 21
2.424068405545306E-6
 31
0.0
 73
     1
 44
0.60024009603842
  0
ENDBLK
  5
253
330
24B
100
AcDbEntity
  8
0
100
AcDbBlockEnd
  0
BLOCK
  5
25D
330
256
100
AcDbEntity
  8
0
100
AcDbBlockBegin
  2
*D17
 70
     1
 10
0.0
 20
0.0
 30
0.0
  3
*D17
  1

  0
LINE
  5
257
330
256
100
AcDbEntity
  8
1
  6
Continuous
 62
     3
100
AcDbLine
 10
178.7580372881393
 20
-27.89716385654323
 30
0.0
 11
208.7628722273913
 21
-27.89716385654323
 31
0.0
  0
LINE
  5
258
330
256
100
AcDbEntity
  8
1
  6
Continuous
 62
     3
100
AcDbLine
 10
208.7628722273913
 20
-91.58316034453372
 30
0.0
 11
208.7628722273913
 21
-23.89716385654323
 31
0.0
  0
LINE
  5
259
330
256
100
AcDbEntity
  8
1
  6
Continuous
 62
     3
100
AcDbLine
 10
178.7580372881393
 20
-91.58316034453372
 30
0.0
 11
178.7580372881393
 21
-23.89716385654323
 31
0.0
  0
SOLID
  5
25A
330
256
100
AcDbEntity
  8
1
 62
     3
100
AcDbTrace
 10
185.7580372881393
 20
-26.97559637343146
 30
0.0
 11
185.7580372881393
 21
-28.81873133965501
 31
0.0
 12
178.7580372881393
 22
-27.89716385654323
 32
0.0
 13
178.7580372881393
 23
-27.89716385654323
 33
0.0
  0
SOLID
  5
25B
330
256
100
AcDbEntity
  8
1
 62
     3
100
AcDbTrace
 10
201.7628722273913
 20
-28.818731339655
 30
0.0
 11
201.7628722273913
 21
-26.97559637343146
 31
0.0
 12
208.7628722273913
 22
-27.89716385654323
 32
0.0
 13
208.7628722273913
 23
-27.89716385654323
 33
0.0
  0
MTEXT
  5
25C
330
256
100
AcDbEntity
  8
1
 62
     2
100
AcDbMText
 10
188.5104547577653
 20
-24.69716385654323
 30
0.0
 40
7.0
 41
0.0
 71
     7
 72
     1
  1
30
  7
CONVERTER_12
 11
0.9999999999970619
 21
2.424068405545306E-6
 31
0.0
 73
     1
 44
0.60024009603842
  0
ENDBLK
  5
25E
330
256
100
AcDbEntity
  8
0
100
AcDbBlockEnd
  0
BLOCK
  5
26A
330
261
100
AcDbEntity
  8
0
100
AcDbBlockBegin
  2
*D18
 70
     1
 10
0.0
 20
0.0
 30
0.0
  3
*D18
  1

  0
LINE
  5
262
330
261
100
AcDbEntity
  8
1
  6
Continuous
 62
     3
100
AcDbLine
 10
244.7604547577653
 20
-27.89716385654323
 30
0.0
 11
258.7604547577653
 21
-27.89716385654323
 31
0.0
  0
LINE
  5
263
330
261
100
AcDbEntity
  8
1
  6
Continuous
 62
     3
100
AcDbLine
 10
208.7628722273913
 20
-27.89716385654323
 30
0.0
 11
244.7604547577653
 21
-27.89716385654323
 31
0.0
  0
LINE
  5
264
330
261
100
AcDbEntity
  8
1
  6
Continuous
 62
     3
100
AcDbLine
 10
194.7628722273913
 20
-27.89716385654323
 30
0.0
 11
208.7628722273913
 21
-27.89716385654323
 31
0.0
  0
LINE
  5
265
330
261
100
AcDbEntity
  8
1
  6
Continuous
 62
     3
100
AcDbLine
 10
244.7604547577653
 20
-92.08316034453372
 30
0.0
 11
244.7604547577653
 21
-23.89716385654323
 31
0.0
  0
LINE
  5
266
330
261
100
AcDbEntity
  8
1
  6
Continuous
 62
     3
100
AcDbLine
 10
208.7628722273913
 20
-91.58316034453372
 30
0.0
 11
208.7628722273913
 21
-23.89716385654323
 31
0.0
  0
SOLID
  5
267
330
261
100
AcDbEntity
  8
1
 62
     3
100
AcDbTrace
 10
201.7628722273913
 20
-28.818731339655
 30
0.0
 11
201.7628722273913
 21
-26.97559637343146
 31
0.0
 12
208.7628722273913
 22
-27.89716385654323
 32
0.0
 13
208.7628722273913
 23
-27.89716385654323
 33
0.0
  0
SOLID
  5
268
330
261
100
AcDbEntity
  8
1
 62
     3
100
AcDbTrace
 10
251.7604547577653
 20
-26.97559637343146
 30
0.0
 11
251.7604547577653
 21
-28.81873133965501
 31
0.0
 12
244.7604547577653
 22
-27.89716385654323
 32
0.0
 13
244.7604547577653
 23
-27.89716385654323
 33
0.0
  0
MTEXT
  5
269
330
261
100
AcDbEntity
  8
1
 62
     2
100
AcDbMText
 10
221.5116634925783
 20
-24.69716385654323
 30
0.0
 40
7.0
 41
0.0
 71
     7
 72
     1
  1
36
  7
CONVERTER_12
 11
0.9999999999970619
 21
2.424068405545306E-6
 31
0.0
 73
     1
 44
0.60024009603842
  0
ENDBLK
  5
26B
330
261
100
AcDbEntity
  8
0
100
AcDbBlockEnd
  0
BLOCK
  5
275
330
26E
100
AcDbEntity
  8
0
100
AcDbBlockBegin
  2
*D19
 70
     1
 10
0.0
 20
0.0
 30
0.0
  3
*D19
  1

  0
LINE
  5
26F
330
26E
100
AcDbEntity
  8
1
  6
Continuous
 62
     3
100
AcDbLine
 10
362.631816823686
 20
-319.0831603445337
 30
0.0
 11
362.631816823686
 21
-164.0831603445337
 31
0.0
  0
LINE
  5
270
330
26E
100
AcDbEntity
  8
1
  6
Continuous
 62
     3
100
AcDbLine
 10
350.7604547577657
 20
-319.0831603445337
 30
0.0
 11
366.631816823686
 21
-319.0831603445337
 31
0.0
  0
LINE
  5
271
330
26E
100
AcDbEntity
  8
1
  6
Continuous
 62
     3
100
AcDbLine
 10
264.5669910706143
 20
-164.0831603445337
 30
0.0
 11
366.631816823686
 21
-164.0831603445337
 31
0.0
  0
SOLID
  5
272
330
26E
100
AcDbEntity
  8
1
 62
     3
100
AcDbTrace
 10
361.7102493405743
 20
-312.0831603445337
 30
0.0
 11
363.5533843067977
 21
-312.0831603445337
 31
0.0
 12
362.631816823686
 22
-319.0831603445337
 32
0.0
 13
362.631816823686
 23
-319.0831603445337
 33
0.0
  0
SOLID
  5
273
330
26E
100
AcDbEntity
  8
1
 62
     3
100
AcDbTrace
 10
363.5533843067977
 20
-171.0831603445337
 30
0.0
 11
361.7102493405743
 21
-171.0831603445337
 31
0.0
 12
362.631816823686
 22
-164.0831603445337
 32
0.0
 13
362.631816823686
 23
-164.0831603445337
 33
0.0
  0
MTEXT
  5
274
330
26E
100
AcDbEntity
  8
1
 62
     2
100
AcDbMText
 10
359.431816823686
 20
-245.6421695819317
 30
0.0
 40
7.0
 41
0.0
 71
     7
 72
     1
  1
155
  7
CONVERTER_12
 11
0.0
 21
1.0
 31
0.0
 73
     1
 44
0.60024009603842
  0
ENDBLK
  5
276
330
26E
100
AcDbEntity
  8
0
100
AcDbBlockEnd
  0
BLOCK
  5
282
330
279
100
AcDbEntity
  8
0
100
AcDbBlockBegin
  2
*D20
 70
     1
 10
0.0
 20
0.0
 30
0.0
  3
*D20
  1

  0
LINE
  5
27A
330
279
100
AcDbEntity
  8
1
  6
Continuous
 62
     3
100
AcDbLine
 10
57.78413896688718
 20
-285.8836492851697
 30
0.0
 11
71.78413896688718
 21
-285.8836492851697
 31
0.0
  0
LINE
  5
27B
330
279
100
AcDbEntity
  8
1
  6
Continuous
 62
     3
100
AcDbLine
 10
71.78413896688718
 20
-285.8836492851697
 30
0.0
 11
80.78413896688718
 21
-285.8836492851697
 31
0.0
  0
LINE
  5
27C
330
279
100
AcDbEntity
  8
1
  6
Continuous
 62
     3
100
AcDbLine
 10
80.78413896688718
 20
-285.8836492851697
 30
0.0
 11
96.9512104287364
 21
-285.8836492851697
 31
0.0
  0
LINE
  5
27D
330
279
100
AcDbEntity
  8
1
  6
Continuous
 62
     3
100
AcDbLine
 10
71.78413896688718
 20
-253.0831603445337
 30
0.0
 11
71.78413896688718
 21
-289.8836492851697
 31
0.0
  0
LINE
  5
27E
330
279
100
AcDbEntity
  8
1
  6
Continuous
 62
     3
100
AcDbLine
 10
80.78413896688718
 20
-253.0831603445337
 30
0.0
 11
80.78413896688718
 21
-289.8836492851697
 31
0.0
  0
SOLID
  5
27F
330
279
100
AcDbEntity
  8
1
 62
     3
100
AcDbTrace
 10
64.78413896688718
 20
-286.8052167682814
 30
0.0
 11
64.78413896688718
 21
-284.9620818020579
 31
0.0
 12
71.78413896688718
 22
-285.8836492851697
 32
0.0
 13
71.78413896688718
 23
-285.8836492851697
 33
0.0
  0
SOLID
  5
280
330
279
100
AcDbEntity
  8
1
 62
     3
100
AcDbTrace
 10
87.78413896688718
 20
-284.9620818020579
 30
0.0
 11
87.78413896688718
 21
-286.8052167682814
 31
0.0
 12
80.78413896688718
 22
-285.8836492851697
 32
0.0
 13
80.78413896688718
 23
-285.8836492851697
 33
0.0
  0
MTEXT
  5
281
330
279
100
AcDbEntity
  8
1
 62
     2
100
AcDbMText
 10
87.01121042875326
 20
-282.6836631993223
 30
0.0
 40
7.0
 41
0.0
 71
     7
 72
     1
  1
\C2;{\Fgdt;n}\C2;9
  7
CONVERTER_12
 11
0.9999999999970619
 21
2.424068405545306E-6
 31
0.0
 73
     1
 44
0.60024009603842
  0
ENDBLK
  5
283
330
279
100
AcDbEntity
  8
0
100
AcDbBlockEnd
  0
ENDSEC
  0
SECTION
  2
ENTITIES
  0
INSERT
  5
52
330
1F
100
AcDbEntity
  8
0
100
AcDbBlockReference
  2
_tb_frame_A3_2000
 10
-0.49950645701273
 20
-232.6618059748636
 30
0.0
 41
2.0
 42
2.0
 43
2.0
  0
INSERT
  5
53
330
1F
100
AcDbEntity
  8
1
100
AcDbBlockReference
  2
_TD_WA50_de_gb_fr
 10
-234.5340734380535
 20
-61.70536224912686
 30
0.0
 41
2.0
 42
2.0
 43
2.0
  0
LINE
  5
148
330
1F
100
AcDbEntity
  8
1
  6
DOT_CENTER
 62
     3
100
AcDbLine
 10
71.78413896688718
 20
-253.0831603445337
 30
0.0
 11
65.28413896688718
 21
-253.0831603445337
 31
0.0
  0
LINE
  5
149
330
1F
100
AcDbEntity
  8
1
  6
DOT_CENTER
 62
     3
100
AcDbLine
 10
-11.71586103311287
 20
-253.0831603445337
 30
0.0
 11
-18.21586103311287
 21
-253.0831603445338
 31
0.0
  0
LINE
  5
14A
330
1F
100
AcDbEntity
  8
1
  6
DOT_CENTER
 62
     3
100
AcDbLine
 10
-11.71586103311287
 20
-75.08316034453372
 30
0.0
 11
-18.21586103311287
 21
-75.08316034453372
 31
0.0
  0
LINE
  5
14B
330
1F
100
AcDbEntity
  8
1
  6
DOT_CENTER
 62
     3
100
AcDbLine
 10
71.78413896688718
 20
-75.08316034453372
 30
0.0
 11
65.28413896688718
 21
-75.08316034453372
 31
0.0
  0
LINE
  5
14C
330
1F
100
AcDbEntity
  8
1
  6
DOT_CENTER
 62
     3
100
AcDbLine
 10
155.7180455894293
 20
-75.08316034453372
 30
0.0
 11
175.7180455894293
 21
-75.08316034453372
 31
0.0
  0
LINE
  5
14D
330
1F
100
AcDbEntity
  8
1
  6
DOT_CENTER
 62
     3
100
AcDbLine
 10
153.1725910439745
 20
-253.0831603445337
 30
0.0
 11
178.1725910439745
 21
-253.0831603445337
 31
0.0
  0
LINE
  5
14E
330
1F
100
AcDbEntity
  8
1
  6
Continuous
 62
     3
100
AcDbLine
 10
26.78817227447232
 20
-234.0831603445337
 30
0.0
 11
-1.96586103311287
 21
-234.0831603445337
 31
0.0
  0
LINE
  5
14F
330
1F
100
AcDbEntity
  8
1
  6
Continuous
 62
     3
100
AcDbLine
 10
-7.46586103311287
 20
-228.5831603445337
 30
0.0
 11
-7.46586103311287
 21
-99.58316034453362
 31
0.0
  0
LINE
  5
150
330
1F
100
AcDbEntity
  8
1
  6
Continuous
 62
     3
100
AcDbLine
 10
-1.96586103311287
 20
-94.08316034453372
 30
0.0
 11
71.03413896688718
 21
-94.08316034453372
 31
0.0
  0
LINE
  5
151
330
1F
100
AcDbEntity
  8
1
  6
Continuous
 62
     3
100
AcDbLine
 10
76.53413896688718
 20
-99.58316034453372
 30
0.0
 11
76.53413896688718
 21
-228.5831603445337
 31
0.0
  0
LINE
  5
152
330
1F
100
AcDbEntity
  8
1
  6
Continuous
 62
     3
100
AcDbLine
 10
71.03413896688718
 20
-234.0831603445337
 30
0.0
 11
42.28010565930201
 21
-234.0831603445337
 31
0.0
  0
LINE
  5
153
330
1F
100
AcDbEntity
  8
1
  6
Continuous
 62
     7
100
AcDbLine
 10
26.94954658056429
 20
-239.0831603445337
 30
0.0
 11
-1.96586103311287
 21
-239.0831603445337
 31
0.0
  0
LINE
  5
154
330
1F
100
AcDbEntity
  8
1
  6
Continuous
 62
     7
100
AcDbLine
 10
-12.46586103311287
 20
-228.5831603445337
 30
0.0
 11
-12.46586103311287
 21
-99.58316034453372
 31
0.0
  0
LINE
  5
155
330
1F
100
AcDbEntity
  8
1
  6
Continuous
 62
     7
100
AcDbLine
 10
-1.96586103311287
 20
-89.08316034453372
 30
0.0
 11
71.03413896688714
 21
-89.0831603445337
 31
0.0
  0
LINE
  5
156
330
1F
100
AcDbEntity
  8
1
  6
Continuous
 62
     7
100
AcDbLine
 10
81.53413896688718
 20
-99.58316034453372
 30
0.0
 11
81.53413896688718
 21
-228.5831603445337
 31
0.0
  0
LINE
  5
157
330
1F
100
AcDbEntity
  8
1
  6
Continuous
 62
     7
100
AcDbLine
 10
71.03413896688718
 20
-239.0831603445337
 30
0.0
 11
42.11873135321004
 21
-239.0831603445337
 31
0.0
  0
LINE
  5
158
330
1F
100
AcDbEntity
  8
1
  6
DOT_CENTER
 62
     3
100
AcDbLine
 10
-7.21586103311287
 20
-63.08316034453372
 30
0.0
 11
-7.21586103311287
 21
-85.08316034453372
 31
0.0
  0
LINE
  5
159
330
1F
100
AcDbEntity
  8
1
  6
DOT_CENTER
 62
     3
100
AcDbLine
 10
3.78413896688713
 20
-75.08316034453372
 30
0.0
 11
-11.71586103311287
 21
-75.08316034453372
 31
0.0
  0
LINE
  5
15A
330
1F
100
AcDbEntity
  8
1
  6
DOT_CENTER
 62
     3
100
AcDbLine
 10
76.28413896688718
 20
-63.08316034453372
 30
0.0
 11
76.28413896688718
 21
-85.08316034453372
 31
0.0
  0
LINE
  5
15B
330
1F
100
AcDbEntity
  8
1
  6
DOT_CENTER
 62
     3
100
AcDbLine
 10
87.28413896688717
 20
-75.08316034453372
 30
0.0
 11
71.78413896688718
 21
-75.08316034453372
 31
0.0
  0
LINE
  5
15C
330
1F
100
AcDbEntity
  8
1
  6
DOT_CENTER
 62
     3
100
AcDbLine
 10
76.28413896688718
 20
-243.0831603445337
 30
0.0
 11
76.28413896688718
 21
-265.0831603445337
 31
0.0
  0
LINE
  5
15D
330
1F
100
AcDbEntity
  8
1
  6
DOT_CENTER
 62
     3
100
AcDbLine
 10
87.28413896688717
 20
-253.0831603445337
 30
0.0
 11
71.78413896688718
 21
-253.0831603445337
 31
0.0
  0
LINE
  5
15E
330
1F
100
AcDbEntity
  8
1
  6
DOT_CENTER
 62
     3
100
AcDbLine
 10
-7.21586103311287
 20
-243.0831603445337
 30
0.0
 11
-7.21586103311287
 21
-265.0831603445337
 31
0.0
  0
LINE
  5
15F
330
1F
100
AcDbEntity
  8
1
  6
DOT_CENTER
 62
     3
100
AcDbLine
 10
3.78413896688713
 20
-253.0831603445337
 30
0.0
 11
-11.71586103311287
 21
-253.0831603445337
 31
0.0
  0
LINE
  5
160
330
1F
100
AcDbEntity
  8
1
  6
Continuous
 62
     7
100
AcDbLine
 10
238.7604547577653
 20
-239.0831603445337
 30
0.0
 11
238.7604547577653
 21
-89.08316034453371
 31
0.0
  0
LINE
  5
161
330
1F
100
AcDbEntity
  8
1
  6
Continuous
 62
     7
100
AcDbLine
 10
241.7604547577653
 20
-239.0831603445337
 30
0.0
 11
238.7604547577653
 21
-239.0831603445337
 31
0.0
  0
LINE
  5
162
330
1F
100
AcDbEntity
  8
1
  6
Continuous
 62
     7
100
AcDbLine
 10
244.7604547577653
 20
-92.08316034453372
 30
0.0
 11
244.7604547577653
 21
-236.0831603445337
 31
0.0
  0
LINE
  5
163
330
1F
100
AcDbEntity
  8
1
  6
Continuous
 62
     7
100
AcDbLine
 10
238.7604547577653
 20
-89.08316034453371
 30
0.0
 11
241.7604547577653
 21
-89.08316034453371
 31
0.0
  0
LINE
  5
164
330
1F
100
AcDbEntity
  8
1
  6
Continuous
 62
     7
100
AcDbLine
 10
-7.21586103311287
 20
-64.08316034453372
 30
0.0
 11
76.28413896688718
 21
-64.08316034453372
 31
0.0
  0
LINE
  5
165
330
1F
100
AcDbEntity
  8
1
  6
Continuous
 62
     7
100
AcDbLine
 10
86.28413896688717
 20
-74.08316034453372
 30
0.0
 11
86.28413896688717
 21
-254.0831603445337
 31
0.0
  0
LINE
  5
166
330
1F
100
AcDbEntity
  8
1
  6
Continuous
 62
     7
100
AcDbLine
 10
76.28413896688718
 20
-264.0831603445337
 30
0.0
 11
41.31185982275017
 21
-264.0831603445337
 31
0.0
  0
LINE
  5
167
330
1F
100
AcDbEntity
  8
1
  6
Continuous
 62
     7
100
AcDbLine
 10
-17.21586103311287
 20
-254.0831603445337
 30
0.0
 11
-17.21586103311287
 21
-74.08316034453375
 31
0.0
  0
LINE
  5
168
330
1F
100
AcDbEntity
  8
1
  6
DOT_CENTER
 62
     3
100
AcDbLine
 10
-19.96586103311287
 20
-164.0831603445337
 30
0.0
 11
86.53413896688716
 21
-164.0831603445337
 31
0.0
  0
LINE
  5
169
330
1F
100
AcDbEntity
  8
1
  6
DOT_CENTER
 62
     3
100
AcDbLine
 10
34.53413896688717
 20
-332.0831603445337
 30
0.0
 11
34.53413896688717
 21
-59.24539860428675
 31
0.0
  0
LINE
  5
16A
330
1F
100
AcDbEntity
  8
1
  6
Continuous
 62
     7
100
AcDbLine
 10
4.61425298898304
 20
-85.45242673041224
 30
0.0
 11
4.19839531061344
 21
-89.11647354588553
 31
0.0
  0
LINE
  5
16B
330
1F
100
AcDbEntity
  8
1
  6
Continuous
 62
     7
100
AcDbLine
 10
18.86610168059363
 20
-89.08316034453372
 30
0.0
 11
18.45402494479123
 21
-85.45242673041223
 31
0.0
  0
LINE
  5
16C
330
1F
100
AcDbEntity
  8
1
  6
Continuous
 62
     7
100
AcDbLine
 10
6.10854503612073
 20
-84.08316034453372
 30
0.0
 11
16.95973289765364
 21
-84.08316034453372
 31
0.0
  0
LINE
  5
16D
330
1F
100
AcDbEntity
  8
1
  6
DOT_CENTER
 62
     3
100
AcDbLine
 10
11.53413896688723
 20
-94.58316034453372
 30
0.0
 11
11.53413896688723
 21
-83.08316034453372
 31
0.0
  0
LINE
  5
16E
330
1F
100
AcDbEntity
  8
1
  6
DOT_CENTER
 62
     3
100
AcDbLine
 10
47.53413896688717
 20
-319.0831603445337
 30
0.0
 11
21.53413896688717
 21
-319.0831603445337
 31
0.0
  0
LINE
  5
16F
330
1F
100
AcDbEntity
  8
1
  6
Continuous
 62
     7
100
AcDbLine
 10
24.53934323473901
 20
-164.405740989695
 30
0.0
 11
29.25737806733419
 21
-310.5887036574378
 31
0.0
  0
LINE
  5
170
330
1F
100
AcDbEntity
  8
1
  6
Continuous
 62
     7
100
AcDbLine
 10
39.81089986644011
 20
-310.5887036574378
 30
0.0
 11
44.52893469903536
 21
-164.405740989695
 31
0.0
  0
LINE
  5
171
330
1F
100
AcDbEntity
  8
1
  6
Continuous
 62
     7
100
AcDbLine
 10
27.75641811102416
 20
-264.0831603445337
 30
0.0
 11
-7.21586103311287
 21
-264.0831603445337
 31
0.0
  0
LINE
  5
172
330
1F
100
AcDbEntity
  8
1
  6
Continuous
 62
     7
100
AcDbLine
 10
162.7604547577653
 20
-64.08316034453375
 30
0.0
 11
165.2604547577653
 21
-64.08316034453372
 31
0.0
  0
LINE
  5
173
330
1F
100
AcDbEntity
  8
1
  6
Continuous
 62
     7
100
AcDbLine
 10
165.2604547577653
 20
-264.0831603445337
 30
0.0
 11
162.7604547577653
 21
-264.0831603445337
 31
0.0
  0
LINE
  5
174
330
1F
100
AcDbEntity
  8
1
  6
Continuous
 62
     7
100
AcDbLine
 10
162.7604547577653
 20
-264.0831603445337
 30
0.0
 11
162.7604547577653
 21
-64.08316034453375
 31
0.0
  0
LINE
  5
175
330
1F
100
AcDbEntity
  8
1
  6
Continuous
 62
     7
100
AcDbLine
 10
167.7604547577653
 20
-66.58316034453372
 30
0.0
 11
167.7604547577653
 21
-261.5831603445337
 31
0.0
  0
LINE
  5
176
330
1F
100
AcDbEntity
  8
1
  6
Continuous
 62
     7
100
AcDbLine
 10
238.7604547577653
 20
-236.5831603445337
 30
0.0
 11
167.7604547577653
 21
-236.5831603445337
 31
0.0
  0
LINE
  5
177
330
1F
100
AcDbEntity
  8
1
  6
DOT_CENTER
 62
     3
100
AcDbLine
 10
159.7604547577653
 20
-164.0831603445337
 30
0.0
 11
264.5669910706143
 21
-164.0831603445337
 31
0.0
  0
LINE
  5
178
330
1F
100
AcDbEntity
  8
1
  6
Continuous
 62
     7
100
AcDbLine
 10
247.7604547577653
 20
-171.5831603445337
 30
0.0
 11
244.7604547577653
 21
-171.5831603445337
 31
0.0
  0
LINE
  5
179
330
1F
100
AcDbEntity
  8
1
  6
Continuous
 62
     7
100
AcDbLine
 10
247.7604547577653
 20
-156.5831603445337
 30
0.0
 11
244.7604547577653
 21
-156.5831603445337
 31
0.0
  0
LINE
  5
17A
330
1F
100
AcDbEntity
  8
1
  6
Continuous
 62
     7
100
AcDbLine
 10
247.7604547577653
 20
-154.0831603445337
 30
0.0
 11
247.7604547577653
 21
-327.8331603445337
 31
0.0
  0
LINE
  5
17B
330
1F
100
AcDbEntity
  8
1
  6
Continuous
 62
     7
100
AcDbLine
 10
247.7604547577653
 20
-154.0831603445337
 30
0.0
 11
257.7604547577653
 21
-154.0831603445337
 31
0.0
  0
LINE
  5
17C
330
1F
100
AcDbEntity
  8
1
  6
Continuous
 62
     7
100
AcDbLine
 10
247.7604547577653
 20
-327.8331603445337
 30
0.0
 11
257.7604547577653
 21
-327.8331603445337
 31
0.0
  0
LINE
  5
17D
330
1F
100
AcDbEntity
  8
1
  6
Continuous
 62
     7
100
AcDbLine
 10
257.7604547577653
 20
-327.8331603445337
 30
0.0
 11
257.7604547577653
 21
-154.0831603445337
 31
0.0
  0
LINE
  5
17E
330
1F
100
AcDbEntity
  8
1
  6
DOT_CENTER
 62
     3
100
AcDbLine
 10
252.7604547577653
 20
-316.3331603445337
 30
0.0
 11
252.7604547577653
 21
-321.8331603445337
 31
0.0
  0
LINE
  5
17F
330
1F
100
AcDbEntity
  8
1
  6
Continuous
 62
     7
100
AcDbLine
 10
260.2604547577653
 20
-309.0831603445337
 30
0.0
 11
269.2604547577653
 21
-309.0831603445337
 31
0.0
  0
LINE
  5
180
330
1F
100
AcDbEntity
  8
1
  6
Continuous
 62
     7
100
AcDbLine
 10
260.2604547577653
 20
-329.0831603445337
 30
0.0
 11
269.2604547577653
 21
-329.0831603445337
 31
0.0
  0
LINE
  5
181
330
1F
100
AcDbEntity
  8
1
  6
Continuous
 62
     7
100
AcDbLine
 10
269.7604547577653
 20
-328.5831603445337
 30
0.0
 11
269.7604547577653
 21
-309.5831603445337
 31
0.0
  0
LINE
  5
182
330
1F
100
AcDbEntity
  8
1
  6
Continuous
 62
     7
100
AcDbLine
 10
346.803975288648
 20
-311.5682474925958
 30
0.0
 11
271.7604547577653
 21
-309.663805505824
 31
0.0
  0
LINE
  5
183
330
1F
100
AcDbEntity
  8
1
  6
Continuous
 62
     7
100
AcDbLine
 10
271.7604547577653
 20
-328.5025151832435
 30
0.0
 11
346.803975288648
 21
-326.5980731964716
 31
0.0
  0
LINE
  5
184
330
1F
100
AcDbEntity
  8
1
  6
DOT_CENTER
 62
     3
100
AcDbLine
 10
244.7604547577653
 20
-319.0831603445337
 30
0.0
 11
350.7604547577657
 21
-319.0831603445337
 31
0.0
  0
LINE
  5
185
330
1F
100
AcDbEntity
  8
1
  6
Continuous
 62
     7
100
AcDbLine
 10
346.803975288648
 20
-326.5980731964716
 30
0.0
 11
346.803975288648
 21
-311.5682474925958
 31
0.0
  0
LINE
  5
186
330
1F
100
AcDbEntity
  8
1
  6
Continuous
 62
     7
100
AcDbLine
 10
259.7604547577653
 20
-328.5831603445337
 30
0.0
 11
259.7604547577653
 21
-309.5831603445337
 31
0.0
  0
LINE
  5
187
330
1F
100
AcDbEntity
  8
1
  6
Continuous
 62
     7
100
AcDbLine
 10
271.7604547577653
 20
-328.5025151832435
 30
0.0
 11
271.7604547577653
 21
-309.663805505824
 31
0.0
  0
LINE
  5
188
330
1F
100
AcDbEntity
  8
1
  6
Continuous
 62
     7
100
AcDbLine
 10
203.7604547577653
 20
-84.08316034453372
 30
0.0
 11
183.7604547577653
 21
-84.08316034453372
 31
0.0
  0
LINE
  5
189
330
1F
100
AcDbEntity
  8
1
  6
Continuous
 62
     7
100
AcDbLine
 10
238.7604547577653
 20
-91.58316034453372
 30
0.0
 11
208.7628722273913
 21
-91.58316034453372
 31
0.0
  0
LINE
  5
18A
330
1F
100
AcDbEntity
  8
1
  6
Continuous
 62
     7
100
AcDbLine
 10
181.9635198179894
 20
-85.19666636869323
 30
0.0
 11
180.5573896975412
 21
-90.46965432037422
 31
0.0
  0
LINE
  5
18B
330
1F
100
AcDbEntity
  8
1
  6
Continuous
 62
     7
100
AcDbLine
 10
179.1080372881393
 20
-91.58316034453372
 30
0.0
 11
178.7580372881394
 21
-91.58316034453372
 31
0.0
  0
LINE
  5
18C
330
1F
100
AcDbEntity
  8
1
  6
Continuous
 62
     7
100
AcDbLine
 10
205.5573896975412
 20
-85.19666636869323
 30
0.0
 11
206.9635198179894
 21
-90.46965432037422
 31
0.0
  0
LINE
  5
18D
330
1F
100
AcDbEntity
  8
1
  6
Continuous
 62
     7
100
AcDbLine
 10
208.4128722273914
 20
-91.58316034453372
 30
0.0
 11
179.1080372881393
 21
-91.58316034453372
 31
0.0
  0
LINE
  5
18E
330
1F
100
AcDbEntity
  8
1
  6
Continuous
 62
     7
100
AcDbLine
 10
204.1080372881393
 20
-84.08316034453372
 30
0.0
 11
203.7604547577653
 21
-84.08316034453372
 31
0.0
  0
LINE
  5
18F
330
1F
100
AcDbEntity
  8
1
  6
Continuous
 62
     7
100
AcDbLine
 10
183.7604547577653
 20
-84.08316034453372
 30
0.0
 11
183.4128722273914
 21
-84.08316034453372
 31
0.0
  0
LINE
  5
190
330
1F
100
AcDbEntity
  8
1
  6
Continuous
 62
     7
100
AcDbLine
 10
208.7628722273913
 20
-91.58316034453372
 30
0.0
 11
208.4128722273914
 21
-91.58316034453372
 31
0.0
  0
LINE
  5
191
330
1F
100
AcDbEntity
  8
1
  6
Continuous
 62
     7
100
AcDbLine
 10
178.7580372881394
 20
-91.58316034453372
 30
0.0
 11
167.7604547577653
 21
-91.58316034453372
 31
0.0
  0
ARC
  5
192
330
1F
100
AcDbEntity
  8
1
  6
Continuous
 62
     7
100
AcDbCircle
 10
-7.21586103311287
 20
-253.0831603445337
 30
0.0
 40
4.5
100
AcDbArc
 50
0.0
 51
180.0
  0
ARC
  5
193
330
1F
100
AcDbEntity
  8
1
  6
Continuous
 62
     7
100
AcDbCircle
 10
-7.21586103311287
 20
-253.0831603445337
 30
0.0
 40
4.499999999999996
100
AcDbArc
 50
180.0
 51
0.0
  0
ARC
  5
194
330
1F
100
AcDbEntity
  8
1
  6
Continuous
 62
     7
100
AcDbCircle
 10
34.53413896688717
 20
-164.0831603445337
 30
0.0
 40
10.00000000000002
100
AcDbArc
 50
358.1514283547713
 51
181.8485716452287
  0
ARC
  5
195
330
1F
100
AcDbEntity
  8
1
  6
Continuous
 62
     7
100
AcDbCircle
 10
34.53413896688717
 20
-164.0831603445337
 30
0.0
 40
14.99999999999998
100
AcDbArc
 50
309.9617432505502
 51
230.0382567494499
  0
ARC
  5
196
330
1F
100
AcDbEntity
  8
1
  6
Continuous
 62
     7
100
AcDbCircle
 10
317.7604547577657
 20
-319.0831603445337
 30
0.0
 40
30.0
100
AcDbArc
 50
0.0
 51
14.50692965138804
  0
ARC
  5
197
330
1F
100
AcDbEntity
  8
1
  6
Continuous
 62
     7
100
AcDbCircle
 10
317.7604547577657
 20
-319.0831603445337
 30
0.0
 40
30.00000000000009
100
AcDbArc
 50
345.493070348612
 51
0.0
  0
CIRCLE
  5
198
330
1F
100
AcDbEntity
  8
1
  6
Continuous
 62
     7
100
AcDbCircle
 10
76.28413896688718
 20
-253.0831603445337
 30
0.0
 40
4.5
  0
CIRCLE
  5
199
330
1F
100
AcDbEntity
  8
1
  6
Continuous
 62
     7
100
AcDbCircle
 10
-7.21586103311287
 20
-75.08316034453372
 30
0.0
 40
4.499999999999996
  0
CIRCLE
  5
19A
330
1F
100
AcDbEntity
  8
1
  6
Continuous
 62
     7
100
AcDbCircle
 10
76.28413896688718
 20
-75.08316034453372
 30
0.0
 40
4.5
  0
CIRCLE
  5
19B
330
1F
100
AcDbEntity
  8
1
  6
Continuous
 62
     7
100
AcDbCircle
 10
34.53413896688717
 20
-319.0831603445337
 30
0.0
 40
7.5
  0
CIRCLE
  5
19C
330
1F
100
AcDbEntity
  8
1
  6
Continuous
 62
     7
100
AcDbCircle
 10
34.53413896688717
 20
-319.0831603445337
 30
0.0
 40
9.999999999999966
  0
CIRCLE
  5
19D
330
1F
100
AcDbEntity
  8
1
  6
Continuous
 62
     7
100
AcDbCircle
 10
252.7604547577653
 20
-319.0831603445337
 30
0.0
 40
1.75
  0
ARC
  5
19E
330
1F
100
AcDbEntity
  8
1
  6
Continuous
 62
     3
100
AcDbCircle
 10
-1.96586103311287
 20
-228.5831603445337
 30
0.0
 40
5.5
100
AcDbArc
 50
180.0
 51
270.0
  0
ARC
  5
19F
330
1F
100
AcDbEntity
  8
1
  6
Continuous
 62
     3
100
AcDbCircle
 10
-1.96586103311287
 20
-99.58316034453372
 30
0.0
 40
5.5
100
AcDbArc
 50
90.0
 51
179.999999999999
  0
ARC
  5
1A0
330
1F
100
AcDbEntity
  8
1
  6
Continuous
 62
     3
100
AcDbCircle
 10
71.03413896688718
 20
-99.58316034453372
 30
0.0
 40
5.5
100
AcDbArc
 50
0.0
 51
90.0
  0
ARC
  5
1A1
330
1F
100
AcDbEntity
  8
1
  6
Continuous
 62
     3
100
AcDbCircle
 10
71.03413896688718
 20
-228.5831603445337
 30
0.0
 40
5.5
100
AcDbArc
 50
270.0
 51
0.0
  0
ARC
  5
1A2
330
1F
100
AcDbEntity
  8
1
  6
Continuous
 62
     7
100
AcDbCircle
 10
-1.96586103311287
 20
-228.5831603445337
 30
0.0
 40
10.5
100
AcDbArc
 50
180.0
 51
270.0
  0
ARC
  5
1A3
330
1F
100
AcDbEntity
  8
1
  6
Continuous
 62
     7
100
AcDbCircle
 10
-1.96586103311287
 20
-99.58316034453372
 30
0.0
 40
10.5
100
AcDbArc
 50
90.0
 51
180.0
  0
ARC
  5
1A4
330
1F
100
AcDbEntity
  8
1
  6
Continuous
 62
     7
100
AcDbCircle
 10
71.03413896688718
 20
-99.58316034453372
 30
0.0
 40
10.5
100
AcDbArc
 50
0.0
 51
90.00000000000024
  0
ARC
  5
1A5
330
1F
100
AcDbEntity
  8
1
  6
Continuous
 62
     7
100
AcDbCircle
 10
71.03413896688718
 20
-228.5831603445337
 30
0.0
 40
10.5
100
AcDbArc
 50
270.0
 51
0.0
  0
ARC
  5
1A6
330
1F
100
AcDbEntity
  8
1
  6
Continuous
 62
     7
100
AcDbCircle
 10
241.7604547577653
 20
-236.0831603445337
 30
0.0
 40
3.0
100
AcDbArc
 50
270.0
 51
0.0
  0
ARC
  5
1A7
330
1F
100
AcDbEntity
  8
1
  6
Continuous
 62
     7
100
AcDbCircle
 10
241.7604547577653
 20
-92.08316034453372
 30
0.0
 40
3.0
100
AcDbArc
 50
0.0
 51
90.0
  0
ARC
  5
1A8
330
1F
100
AcDbEntity
  8
1
  6
Continuous
 62
     7
100
AcDbCircle
 10
76.28413896688718
 20
-254.0831603445337
 30
0.0
 40
10.00000000000003
100
AcDbArc
 50
270.0
 51
0.0
  0
ARC
  5
1A9
330
1F
100
AcDbEntity
  8
1
  6
Continuous
 62
     7
100
AcDbCircle
 10
76.28413896688718
 20
-74.08316034453372
 30
0.0
 40
9.999999999999986
100
AcDbArc
 50
0.0
 51
90.0
  0
ARC
  5
1AA
330
1F
100
AcDbEntity
  8
1
  6
Continuous
 62
     7
100
AcDbCircle
 10
-7.21586103311287
 20
-74.08316034453372
 30
0.0
 40
10.0
100
AcDbArc
 50
90.0
 51
180.0000000000002
  0
ARC
  5
1AB
330
1F
100
AcDbEntity
  8
1
  6
Continuous
 62
     7
100
AcDbCircle
 10
-7.21586103311287
 20
-254.0831603445337
 30
0.0
 40
9.999999999999996
100
AcDbArc
 50
180.0
 51
270.0
  0
ARC
  5
1AC
330
1F
100
AcDbEntity
  8
1
  6
Continuous
 62
     7
100
AcDbCircle
 10
6.10854503612073
 20
-85.58316034453372
 30
0.0
 40
1.5
100
AcDbArc
 50
90.0
 51
175.0000000000005
  0
ARC
  5
1AD
330
1F
100
AcDbEntity
  8
1
  6
Continuous
 62
     7
100
AcDbCircle
 10
16.95973289765364
 20
-85.58316034453372
 30
0.0
 40
1.49999999999997
100
AcDbArc
 50
5.00000000000044
 51
90.0
  0
ARC
  5
1AE
330
1F
100
AcDbEntity
  8
1
  6
Continuous
 62
     7
100
AcDbCircle
 10
165.2604547577653
 20
-261.5831603445337
 30
0.0
 40
2.5
100
AcDbArc
 50
270.0
 51
0.0
  0
ARC
  5
1AF
330
1F
100
AcDbEntity
  8
1
  6
Continuous
 62
     7
100
AcDbCircle
 10
165.2604547577653
 20
-66.58316034453372
 30
0.0
 40
2.5
100
AcDbArc
 50
0.0
 51
90.0
  0
ARC
  5
1B0
330
1F
100
AcDbEntity
  8
1
  6
Continuous
 62
     7
100
AcDbCircle
 10
260.2604547577653
 20
-309.5831603445337
 30
0.0
 40
0.5
100
AcDbArc
 50
90.0
 51
180.0
  0
ARC
  5
1B1
330
1F
100
AcDbEntity
  8
1
  6
Continuous
 62
     7
100
AcDbCircle
 10
269.2604547577653
 20
-309.5831603445337
 30
0.0
 40
0.5
100
AcDbArc
 50
0.0
 51
90.0
  0
ARC
  5
1B2
330
1F
100
AcDbEntity
  8
1
  6
Continuous
 62
     7
100
AcDbCircle
 10
269.2604547577653
 20
-328.5831603445337
 30
0.0
 40
0.5
100
AcDbArc
 50
270.0
 51
0.0
  0
ARC
  5
1B3
330
1F
100
AcDbEntity
  8
1
  6
Continuous
 62
     7
100
AcDbCircle
 10
260.2604547577653
 20
-328.5831603445337
 30
0.0
 40
0.5
100
AcDbArc
 50
180.0
 51
270.0
  0
ARC
  5
1B4
330
1F
100
AcDbEntity
  8
1
  6
Continuous
 62
     7
100
AcDbCircle
 10
258.7604547577653
 20
-310.5831603445337
 30
0.0
 40
1.0
100
AcDbArc
 50
270.0
 51
0.0
  0
ARC
  5
1B5
330
1F
100
AcDbEntity
  8
1
  6
Continuous
 62
     7
100
AcDbCircle
 10
258.7604547577653
 20
-310.5831603445337
 30
0.0
 40
1.0
100
AcDbArc
 50
180.0
 51
270.0
  0
ARC
  5
1B6
330
1F
100
AcDbEntity
  8
1
  6
Continuous
 62
     7
100
AcDbCircle
 10
258.7604547577653
 20
-327.5831603445337
 30
0.0
 40
1.0
100
AcDbArc
 50
90.0
 51
180.0
  0
ARC
  5
1B7
330
1F
100
AcDbEntity
  8
1
  6
Continuous
 62
     7
100
AcDbCircle
 10
258.7604547577653
 20
-327.5831603445337
 30
0.0
 40
1.0
100
AcDbArc
 50
0.0
 51
90.0
  0
ARC
  5
1B8
330
1F
100
AcDbEntity
  8
1
  6
Continuous
 62
     7
100
AcDbCircle
 10
270.7604547577653
 20
-327.5831603445337
 30
0.0
 40
1.0
100
AcDbArc
 50
90.0
 51
180.0
  0
ARC
  5
1B9
330
1F
100
AcDbEntity
  8
1
  6
Continuous
 62
     7
100
AcDbCircle
 10
270.7604547577653
 20
-327.5831603445337
 30
0.0
 40
1.0
100
AcDbArc
 50
0.0
 51
90.0
  0
ARC
  5
1BA
330
1F
100
AcDbEntity
  8
1
  6
Continuous
 62
     7
100
AcDbCircle
 10
270.7604547577653
 20
-310.5831603445337
 30
0.0
 40
1.0
100
AcDbArc
 50
270.0
 51
0.0
  0
ARC
  5
1BB
330
1F
100
AcDbEntity
  8
1
  6
Continuous
 62
     7
100
AcDbCircle
 10
270.7604547577653
 20
-310.5831603445337
 30
0.0
 40
1.0
100
AcDbArc
 50
180.0
 51
270.0
  0
ARC
  5
1BC
330
1F
100
AcDbEntity
  8
1
  6
Continuous
 62
     7
100
AcDbCircle
 10
208.4128722273914
 20
-90.08316034453372
 30
0.0
 40
1.500000000000121
100
AcDbArc
 50
194.9314171781361
 51
270.0
  0
ARC
  5
1BD
330
1F
100
AcDbEntity
  8
1
  6
Continuous
 62
     7
100
AcDbCircle
 10
179.1080372881393
 20
-90.08316034453372
 30
0.0
 40
1.5
100
AcDbArc
 50
270.0
 51
345.068582821863
  0
ARC
  5
1BE
330
1F
100
AcDbEntity
  8
1
  6
Continuous
 62
     7
100
AcDbCircle
 10
204.1080372881393
 20
-85.58316034453372
 30
0.0
 40
1.500000000000039
100
AcDbArc
 50
14.93141717813699
 51
90.0
  0
ARC
  5
1BF
330
1F
100
AcDbEntity
  8
1
  6
Continuous
 62
     7
100
AcDbCircle
 10
183.4128722273914
 20
-85.58316034453372
 30
0.0
 40
1.5
100
AcDbArc
 50
90.0
 51
165.0685828218639
  0
MTEXT
  5
1C0
330
1F
100
AcDbEntity
  8
1
 62
     2
100
AcDbMText
 10
183.2105263115764
 20
-389.7280668120283
 30
0.0
 40
7.0
 41
0.0
 71
     4
 72
     1
  1
 Al
  7
CONVERTER_12
 73
     1
 44
1.32052821128451
  0
MTEXT
  5
1C1
330
1F
100
AcDbEntity
  8
1
 62
     2
100
AcDbMText
 10
178.2105263115764
 20
-389.7280668120283
 30
0.0
 40
7.0
 41
0.0
 71
     6
 72
     1
  1
Werkstoff/ material/ mat\U+00e9riau:
  7
CONVERTER_12
 73
     1
 44
1.32052821128451
  0
MTEXT
  5
1C2
330
1F
100
AcDbEntity
  8
1
 62
     2
100
AcDbMText
 10
264.0552390935159
 20
-71.36490347865791
 30
0.0
 40
7.0
 41
0.0
 71
     7
 72
     1
  1
Seilaustritt/ rope exit/\Psortie de c\U+00e2ble\P20x5
  7
CONVERTER_12
 73
     1
 44
1.32052821128451
  0
DIMENSION
  5
1CF
330
1F
100
AcDbEntity
  8
1
100
AcDbDimension
  2
*D4
 10
162.7604547577653
 20
-27.89716385654323
 30
0.0
 11
170.7592460229523
 21
-21.19716385654323
 31
0.0
 70
    32
  1
<>
 71
     5
 42
-1.0
 53
0.00013888888889
  3
ME10_DIM_10
100
AcDbAlignedDimension
 13
178.7580372881394
 23
-91.58316034453372
 33
0.0
 14
162.7604547577653
 24
-64.08316034453375
 34
0.0
100
AcDbRotatedDimension
  0
DIMENSION
  5
1DA
330
1F
100
AcDbEntity
  8
1
100
AcDbDimension
  2
*D5
 10
162.7604547577653
 20
-356.1331603445338
 30
0.0
 11
205.2604547577653
 21
-349.4331603445338
 31
0.0
 70
    32
  1
<>
 71
     5
 42
-1.0
 53
0.00013888888889
  3
ME10_DIM_11
100
AcDbAlignedDimension
 13
247.7604547577653
 23
-327.8331603445337
 33
0.0
 14
162.7604547577653
 24
-264.0831603445337
 34
0.0
100
AcDbRotatedDimension
  0
DIMENSION
  5
1E5
330
1F
100
AcDbEntity
  8
1
100
AcDbDimension
  2
*D6
 10
162.7604547577654
 20
-376.1331603445338
 30
0.0
 11
256.2400555804179
 21
-369.4331603445338
 31
0.0
 70
    32
  1
<>
 71
     5
 42
-1.0
 53
0.00013888888889
  3
ME10_DIM_12
100
AcDbAlignedDimension
 13
347.7604547577657
 23
-319.0831603445337
 33
0.0
 14
162.7604547577653
 24
-264.0831603445337
 34
0.0
100
AcDbRotatedDimension
  0
DIMENSION
  5
1F0
330
1F
100
AcDbEntity
  8
1
100
AcDbDimension
  2
*D7
 10
162.7604547577653
 20
-336.1331603445338
 30
0.0
 11
203.7604547577653
 21
-329.4331603445338
 31
0.0
 70
    32
  1
<>
 71
     5
 42
-1.0
 53
0.00013888888889
  3
ME10_DIM_13
100
AcDbAlignedDimension
 13
244.7604547577653
 23
-236.0831603445337
 33
0.0
 14
162.7604547577653
 24
-264.0831603445337
 34
0.0
100
AcDbRotatedDimension
  0
DIMENSION
  5
1FD
330
1F
100
AcDbEntity
  8
1
100
AcDbDimension
  2
*D8
 10
162.7604547577653
 20
-285.8836492851697
 30
0.0
 11
149.837013366129
 21
-279.1836492851697
 31
0.0
 70
    32
  1
<>
 71
     5
 42
-1.0
 53
0.00013888888889
  3
ME10_DIM_14
100
AcDbAlignedDimension
 13
167.7604547577653
 23
-261.5831603445337
 33
0.0
 14
162.7604547577653
 24
-264.0831603445337
 34
0.0
100
AcDbRotatedDimension
  0
DIMENSION
  5
208
330
1F
100
AcDbEntity
  8
1
100
AcDbDimension
  2
*D9
 10
-17.21586103311288
 20
12.10283614345678
 30
0.0
 11
32.06434723902778
 21
19.15283614345678
 31
0.0
 70
    32
  1
<>
 71
     5
 42
-1.0
 53
0.00013888888889
  3
ME10_DIM_15
100
AcDbAlignedDimension
 13
86.28413896688717
 23
-74.08316034453372
 33
0.0
 14
-17.21586103311287
 24
-74.08316034453375
 34
0.0
100
AcDbRotatedDimension
  0
DIMENSION
  5
213
330
1F
100
AcDbEntity
  8
1
100
AcDbDimension
  2
*D10
 10
-12.46586103311284
 20
-7.89716385654322
 30
0.0
 11
32.38149448718136
 21
-1.19716385654322
 31
0.0
 70
    32
  1
<>
 71
     5
 42
-1.0
 53
0.00013888888889
  3
ME10_DIM_16
100
AcDbAlignedDimension
 13
81.53413896688718
 23
-99.58316034453372
 33
0.0
 14
-12.46586103311287
 24
-99.58316034453372
 34
0.0
100
AcDbRotatedDimension
  0
DIMENSION
  5
21E
330
1F
100
AcDbEntity
  8
1
100
AcDbDimension
  2
*D11
 10
-7.21586103311281
 20
-27.89716385654322
 30
0.0
 11
34.53413896688716
 21
-20.84716385654322
 31
0.0
 70
    32
  1
<>
 71
     5
 42
-1.0
 53
0.00013888888889
  3
ME10_DIM_17
100
AcDbAlignedDimension
 13
76.28413896688718
 23
-63.08316034453372
 33
0.0
 14
-7.21586103311287
 24
-63.08316034453372
 34
0.0
100
AcDbRotatedDimension
  0
DIMENSION
  5
229
330
1F
100
AcDbEntity
  8
1
100
AcDbDimension
  2
*D12
 10
11.5341389668872
 20
-47.89716385654323
 30
0.0
 11
23.0341389668872
 21
-41.19716385654323
 31
0.0
 70
    32
  1
<>
 71
     5
 42
-1.0
 53
0.00013888888889
  3
ME10_DIM_18
100
AcDbAlignedDimension
 13
34.53413896688717
 23
-59.24539860428675
 33
0.0
 14
11.53413896688723
 24
-83.08316034453372
 34
0.0
100
AcDbRotatedDimension
  0
DIMENSION
  5
234
330
1F
100
AcDbEntity
  8
1
100
AcDbDimension
  2
*D13
 10
-101.7658610331129
 20
-64.0831603445337
 30
0.0
 11
-108.4658610331129
 21
-164.7013866540247
 31
0.0
 70
    32
  1
<>
 71
     5
 42
-1.0
 53
90.0
  3
ME10_DIM_19
100
AcDbAlignedDimension
 13
-7.21586103311287
 23
-264.0831603445337
 33
0.0
 14
-7.21586103311287
 24
-64.08316034453372
 34
0.0
 50
90.0
100
AcDbRotatedDimension
  0
DIMENSION
  5
23F
330
1F
100
AcDbEntity
  8
1
100
AcDbDimension
  2
*D14
 10
-81.76586103311288
 20
-75.08316034453367
 30
0.0
 11
-88.46586103311287
 21
-164.6945174728081
 31
0.0
 70
    32
  1
<>
 71
     5
 42
-1.0
 53
90.0
  3
ME10_DIM_20
100
AcDbAlignedDimension
 13
-18.21586103311287
 23
-253.0831603445338
 33
0.0
 14
-18.21586103311287
 24
-75.08316034453372
 34
0.0
 50
90.0
100
AcDbRotatedDimension
  0
DIMENSION
  5
24A
330
1F
100
AcDbEntity
  8
1
100
AcDbDimension
  2
*D15
 10
-61.76586103311288
 20
-89.08316034453372
 30
0.0
 11
-68.46586103311287
 21
-164.2100986298331
 31
0.0
 70
    32
  1
<>
 71
     5
 42
-1.0
 53
90.0
  3
ME10_DIM_21
100
AcDbAlignedDimension
 13
-1.96586103311287
 23
-239.0831603445337
 33
0.0
 14
-1.96586103311287
 24
-89.08316034453372
 34
0.0
 50
90.0
100
AcDbRotatedDimension
  0
DIMENSION
  5
255
330
1F
100
AcDbEntity
  8
1
100
AcDbDimension
  2
*D16
 10
183.7604547577653
 20
-51.75851990960922
 30
0.0
 11
193.7604547577653
 21
-45.05851990960922
 31
0.0
 70
    33
  1
<>
 71
     5
 42
-1.0
 53
0.00013888888889
  3
ME10_DIM_22
100
AcDbAlignedDimension
 13
203.7604547577653
 23
-84.08316034453372
 33
0.0
 14
183.7604547577653
 24
-84.08316034453372
 34
0.0
  0
DIMENSION
  5
260
330
1F
100
AcDbEntity
  8
1
100
AcDbDimension
  2
*D17
 10
178.7580372881393
 20
-27.89716385654323
 30
0.0
 11
193.7604547577653
 21
-21.19716385654323
 31
0.0
 70
    33
  1
<>
 71
     5
 42
-1.0
 53
0.00013888888889
  3
ME10_DIM_23
100
AcDbAlignedDimension
 13
208.7628722273913
 23
-91.58316034453372
 33
0.0
 14
178.7580372881394
 24
-91.58316034453372
 34
0.0
  0
DIMENSION
  5
26D
330
1F
100
AcDbEntity
  8
1
100
AcDbDimension
  2
*D18
 10
208.7628722273913
 20
-27.89716385654323
 30
0.0
 11
226.7616634925783
 21
-21.19716385654323
 31
0.0
 70
    32
  1
<>
 71
     5
 42
-1.0
 53
0.00013888888889
  3
ME10_DIM_24
100
AcDbAlignedDimension
 13
244.7604547577653
 23
-92.08316034453372
 33
0.0
 14
208.7628722273913
 24
-91.58316034453372
 34
0.0
100
AcDbRotatedDimension
  0
DIMENSION
  5
278
330
1F
100
AcDbEntity
  8
1
100
AcDbDimension
  2
*D19
 10
362.631816823686
 20
-319.0831603445337
 30
0.0
 11
355.931816823686
 21
-238.2921695819317
 31
0.0
 70
    32
  1
<>
 71
     5
 42
-1.0
 53
90.0
  3
ME10_DIM_25
100
AcDbAlignedDimension
 13
264.5669910706143
 23
-164.0831603445337
 33
0.0
 14
350.7604547577657
 24
-319.0831603445337
 34
0.0
 50
90.0
100
AcDbRotatedDimension
  0
INSERT
  5
284
330
1F
100
AcDbEntity
  8
1
100
AcDbBlockReference
  2
*D20
 10
0.0
 20
0.0
 30
0.0
  0
ENDSEC
  0
SECTION
  2
OBJECTS
  0
DICTIONARY
  5
C
330
0
100
AcDbDictionary
281
     1
  3
ACAD_GROUP
350
D
  3
ACAD_LAYOUT
350
1A
  3
ACAD_MATERIAL
350
3B
  3
ACAD_MLEADERSTYLE
350
287
  3
ACAD_MLINESTYLE
350
17
  3
ACAD_PLOTSETTINGS
350
19
  3
ACAD_PLOTSTYLENAME
350
E
  3
ACAD_VISUALSTYLE
350
2A
  3
AcDbVariableDictionary
350
285
  0
DICTIONARY
  5
D
102
{ACAD_REACTORS
330
C
102
}
330
C
100
AcDbDictionary
281
     1
  0
DICTIONARY
  5
1A
102
{ACAD_REACTORS
330
C
102
}
330
C
100
AcDbDictionary
281
     1
  3
Layout1
350
1E
  3
Layout2
350
26
  3
Model
350
22
  0
DICTIONARY
  5
3B
102
{ACAD_REACTORS
330
C
102
}
330
C
100
AcDbDictionary
281
     1
  3
ByBlock
350
3D
  3
ByLayer
350
3C
  3
Global
350
3E
  0
DICTIONARY
  5
287
102
{ACAD_REACTORS
330
C
102
}
330
C
100
AcDbDictionary
281
     1
  0
DICTIONARY
  5
17
102
{ACAD_REACTORS
330
C
102
}
330
C
100
AcDbDictionary
281
     1
  3
Standard
350
18
  0
DICTIONARY
  5
19
102
{ACAD_REACTORS
330
C
102
}
330
C
100
AcDbDictionary
281
     1
  0
ACDBDICTIONARYWDFLT
  5
E
102
{ACAD_REACTORS
330
C
102
}
330
C
100
AcDbDictionary
281
     1
  3
Normal
350
F
100
AcDbDictionaryWithDefault
340
F
  0
DICTIONARY
  5
2A
102
{ACAD_REACTORS
330
C
102
}
330
C
100
AcDbDictionary
281
     1
  3
2dWireframe
350
2F
  3
3D Hidden
350
31
  3
3dWireframe
350
30
  3
Basic
350
32
  3
Brighten
350
36
  3
ColorChange
350
3A
  3
Conceptual
350
34
  3
Dim
350
35
  3
Facepattern
350
39
  3
Flat
350
2B
  3
FlatWithEdges
350
2C
  3
Gouraud
350
2D
  3
GouraudWithEdges
350
2E
  3
Linepattern
350
38
  3
Realistic
350
33
  3
Thicken
350
37
  0
DICTIONARY
  5
285
102
{ACAD_REACTORS
330
C
102
}
330
C
100
AcDbDictionary
281
     1
  3
DIMASSOC
350
288
  3
HIDETEXT
350
289
  0
LAYOUT
  5
1E
102
{ACAD_REACTORS
330
1A
102
}
330
1A
100
AcDbPlotSettings
  1

  2
none_device
  4

  6

 40
0.0
 41
0.0
 42
0.0
 43
0.0
 44
0.0
 45
0.0
 46
0.0
 47
0.0
 48
0.0
 49
0.0
140
0.0
141
0.0
142
1.0
143
1.0
 70
   688
 72
     0
 73
     0
 74
     5
  7

 75
    16
147
1.0
148
0.0
149
0.0
100
AcDbLayout
  1
Layout1
 70
     1
 71
     1
 10
0.0
 20
0.0
 11
12.0
 21
9.0
 12
0.0
 22
0.0
 32
0.0
 14
1.00000000000000E+20
 24
1.00000000000000E+20
 34
1.00000000000000E+20
 15
-1.00000000000000E+20
 25
-1.00000000000000E+20
 35
-1.00000000000000E+20
146
0.0
 13
0.0
 23
0.0
 33
0.0
 16
1.0
 26
0.0
 36
0.0
 17
0.0
 27
1.0
 37
0.0
 76
     0
330
1B
  0
LAYOUT
  5
26
102
{ACAD_REACTORS
330
1A
102
}
330
1A
100
AcDbPlotSettings
  1

  2
none_device
  4

  6

 40
0.0
 41
0.0
 42
0.0
 43
0.0
 44
0.0
 45
0.0
 46
0.0
 47
0.0
 48
0.0
 49
0.0
140
0.0
141
0.0
142
1.0
143
1.0
 70
   688
 72
     0
 73
     0
 74
     5
  7

 75
    16
147
1.0
148
0.0
149
0.0
100
AcDbLayout
  1
Layout2
 70
     1
 71
     2
 10
0.0
 20
0.0
 11
0.0
 21
0.0
 12
0.0
 22
0.0
 32
0.0
 14
0.0
 24
0.0
 34
0.0
 15
0.0
 25
0.0
 35
0.0
146
0.0
 13
0.0
 23
0.0
 33
0.0
 16
1.0
 26
0.0
 36
0.0
 17
0.0
 27
1.0
 37
0.0
 76
     0
330
23
  0
LAYOUT
  5
22
102
{ACAD_REACTORS
330
1A
102
}
330
1A
100
AcDbPlotSettings
  1

  2
none_device
  4

  6

 40
0.0
 41
0.0
 42
0.0
 43
0.0
 44
0.0
 45
0.0
 46
0.0
 47
0.0
 48
0.0
 49
0.0
140
0.0
141
0.0
142
1.0
143
1.0
 70
  1712
 72
     0
 73
     0
 74
     0
  7

 75
     0
147
1.0
148
0.0
149
0.0
100
AcDbLayout
  1
Model
 70
     1
 71
     0
 10
0.0
 20
0.0
 11
12.0
 21
9.0
 12
0.0
 22
0.0
 32
0.0
 14
-398.4995064584169
 24
-529.7291123573231
 34
0.0
 15
409.5004935415831
 25
44.3365914903037
 35
0.0
146
0.0
 13
0.0
 23
0.0
 33
0.0
 16
1.0
 26
0.0
 36
0.0
 17
0.0
 27
1.0
 37
0.0
 76
     0
330
1F
331
29
  0
MATERIAL
  5
3D
102
{ACAD_REACTORS
330
3B
102
}
102
{ACAD_XDICTIONARY
360
2AC
102
}
330
3B
100
AcDbMaterial
  1
ByBlock
  0
MATERIAL
  5
3C
102
{ACAD_REACTORS
330
3B
102
}
102
{ACAD_XDICTIONARY
360
2AA
102
}
330
3B
100
AcDbMaterial
  1
ByLayer
  0
MATERIAL
  5
3E
102
{ACAD_REACTORS
330
3B
102
}
102
{ACAD_XDICTIONARY
360
2AE
102
}
330
3B
100
AcDbMaterial
  1
Global
  0
MLINESTYLE
  5
18
102
{ACAD_REACTORS
330
17
102
}
330
17
100
AcDbMlineStyle
  2
Standard
 70
     0
  3

 62
   256
 51
90.0
 52
90.0
 71
     2
 49
0.5
 62
   256
  6
BYLAYER
 49
-0.5
 62
   256
  6
BYLAYER
  0
ACDBPLACEHOLDER
  5
F
102
{ACAD_REACTORS
330
E
102
}
330
E
  0
VISUALSTYLE
  5
2F
102
{ACAD_REACTORS
330
2A
102
}
102
{ACAD_XDICTIONARY
360
292
102
}
330
2A
100
AcDbVisualStyle
  2
2dWireframe
 70
     4
 71
     0
 72
     2
 73
     0
 90
        0
 40
-0.6
 41
-30.0
 62
     5
 63
     7
 74
     1
 91
        4
 64
     7
 65
   257
 75
     1
175
     1
 42
1.0
 92
        0
 66
   257
 43
1.0
 76
     1
 77
     6
 78
     2
 67
     7
 79
     5
170
     0
171
     0
290
     0
174
     0
 93
        1
 44
0.0
173
     0
291
     0
 45
0.0
1001
ACAD
1000
AcDbSavedByObjectVersion
1070
     0
  0
VISUALSTYLE
  5
31
102
{ACAD_REACTORS
330
2A
102
}
102
{ACAD_XDICTIONARY
360
296
102
}
330
2A
100
AcDbVisualStyle
  2
3D Hidden
 70
     6
 71
     1
 72
     2
 73
     2
 90
        0
 40
-0.6
 41
-30.0
 62
     5
 63
     7
 74
     2
 91
        2
 64
     7
 65
   257
 75
     2
175
     1
 42
40.0
 92
        0
 66
   257
 43
1.0
 76
     1
 77
     6
 78
     2
 67
     7
 79
     3
170
     0
171
     0
290
     0
174
     0
 93
        1
 44
0.0
173
     0
291
     0
 45
0.0
1001
ACAD
1000
AcDbSavedByObjectVersion
1070
     0
  0
VISUALSTYLE
  5
30
102
{ACAD_REACTORS
330
2A
102
}
102
{ACAD_XDICTIONARY
360
294
102
}
330
2A
100
AcDbVisualStyle
  2
3dWireframe
 70
     5
 71
     0
 72
     2
 73
     0
 90
        0
 40
-0.6
 41
-30.0
 62
     5
 63
     7
 74
     1
 91
        4
 64
     7
 65
   257
 75
     1
175
     1
 42
1.0
 92
        0
 66
   257
 43
1.0
 76
     1
 77
     6
 78
     2
 67
     7
 79
     5
170
     0
171
     0
290
     0
174
     0
 93
        1
 44
0.0
173
     0
291
     0
 45
0.0
1001
ACAD
1000
AcDbSavedByObjectVersion
1070
     0
  0
VISUALSTYLE
  5
32
102
{ACAD_REACTORS
330
2A
102
}
102
{ACAD_XDICTIONARY
360
298
102
}
330
2A
100
AcDbVisualStyle
  2
Basic
 70
     7
 71
     1
 72
     0
 73
     1
 90
        0
 40
-0.6
 41
-30.0
 62
     5
 63
     7
 74
     0
 91
        4
 64
     7
 65
   257
 75
     1
175
     1
 42
1.0
 92
        8
 66
     7
 43
1.0
 76
     1
 77
     6
 78
     2
 67
     7
 79
     5
170
     0
171
     0
290
     0
174
     0
 93
        1
 44
0.0
173
     0
291
     1
 45
0.0
1001
ACAD
1000
AcDbSavedByObjectVersion
1070
     0
  0
VISUALSTYLE
  5
36
102
{ACAD_REACTORS
330
2A
102
}
102
{ACAD_XDICTIONARY
360
2A0
102
}
330
2A
100
AcDbVisualStyle
  2
Brighten
 70
    12
 71
     2
 72
     2
 73
     0
 90
        0
 40
-0.6
 41
-30.0
 62
     5
 63
     7
 74
     1
 91
        4
 64
     7
 65
   257
 75
     1
175
     1
 42
1.0
 92
        8
 66
     7
 43
1.0
 76
     1
 77
     6
 78
     2
 67
     7
 79
     5
170
     0
171
     0
290
     0
174
     0
 93
        1
 44
50.0
173
     0
291
     1
 45
0.0
1001
ACAD
1000
AcDbSavedByObjectVersion
1070
     0
  0
VISUALSTYLE
  5
3A
102
{ACAD_REACTORS
330
2A
102
}
102
{ACAD_XDICTIONARY
360
2A8
102
}
330
2A
100
AcDbVisualStyle
  2
ColorChange
 70
    16
 71
     2
 72
     2
 73
     3
 90
        0
 40
-0.6
 41
-30.0
 62
     5
 63
     8
 74
     1
 91
        4
 64
     7
 65
   257
 75
     1
175
     1
 42
1.0
 92
        8
 66
     8
 43
1.0
 76
     1
 77
     6
 78
     2
 67
     7
 79
     5
170
     0
171
     0
290
     0
174
     0
 93
        1
 44
0.0
173
     0
291
     1
 45
0.0
1001
ACAD
1000
AcDbSavedByObjectVersion
1070
     0
  0
VISUALSTYLE
  5
34
102
{ACAD_REACTORS
330
2A
102
}
102
{ACAD_XDICTIONARY
360
29C
102
}
330
2A
100
AcDbVisualStyle
  2
Conceptual
 70
     9
 71
     3
 72
     2
 73
     0
 90
        0
 40
-0.6
 41
-30.0
 62
     5
 63
     7
 74
     2
 91
        2
 64
     7
 65
   257
 75
     1
175
     1
 42
40.0
 92
        8
 66
     7
 43
1.0
 76
     1
 77
     6
 78
     2
 67
     7
 79
     3
170
     0
171
     0
290
     0
174
     0
 93
        1
 44
0.0
173
     0
291
     0
 45
0.0
1001
ACAD
1000
AcDbSavedByObjectVersion
1070
     0
  0
VISUALSTYLE
  5
35
102
{ACAD_REACTORS
330
2A
102
}
102
{ACAD_XDICTIONARY
360
29E
102
}
330
2A
100
AcDbVisualStyle
  2
Dim
 70
    11
 71
     2
 72
     2
 73
     0
 90
        0
 40
-0.6
 41
-30.0
 62
     5
 63
     7
 74
     1
 91
        4
 64
     7
 65
   257
 75
     1
175
     1
 42
1.0
 92
        8
 66
     7
 43
1.0
 76
     1
 77
     6
 78
     2
 67
     7
 79
     5
170
     0
171
     0
290
     0
174
     0
 93
        1
 44
-50.0
173
     0
291
     1
 45
0.0
1001
ACAD
1000
AcDbSavedByObjectVersion
1070
     0
  0
VISUALSTYLE
  5
39
102
{ACAD_REACTORS
330
2A
102
}
102
{ACAD_XDICTIONARY
360
2A6
102
}
330
2A
100
AcDbVisualStyle
  2
Facepattern
 70
    15
 71
     2
 72
     2
 73
     0
 90
        0
 40
-0.6
 41
-30.0
 62
     5
 63
     7
 74
     1
 91
        4
 64
     7
 65
   257
 75
     1
175
     1
 42
1.0
 92
        8
 66
     7
 43
1.0
 76
     1
 77
     6
 78
     2
 67
     7
 79
     5
170
     0
171
     0
290
     0
174
     0
 93
        1
 44
0.0
173
     0
291
     1
 45
0.0
1001
ACAD
1000
AcDbSavedByObjectVersion
1070
     0
  0
VISUALSTYLE
  5
2B
102
{ACAD_REACTORS
330
2A
102
}
102
{ACAD_XDICTIONARY
360
28A
102
}
330
2A
100
AcDbVisualStyle
  2
Flat
 70
     0
 71
     2
 72
     1
 73
     1
 90
        2
 40
-0.6
 41
30.0
 62
     5
 63
     7
 74
     0
 91
        4
 64
     7
 65
   257
 75
     1
175
     1
 42
1.0
 92
        8
 66
     7
 43
1.0
 76
     1
 77
     6
 78
     2
 67
     7
 79
     5
170
     0
171
     0
290
     0
174
     0
 93
       13
 44
0.0
173
     0
291
     1
 45
0.0
1001
ACAD
1000
AcDbSavedByObjectVersion
1070
     0
  0
VISUALSTYLE
  5
2C
102
{ACAD_REACTORS
330
2A
102
}
102
{ACAD_XDICTIONARY
360
28C
102
}
330
2A
100
AcDbVisualStyle
  2
FlatWithEdges
 70
     1
 71
     2
 72
     1
 73
     1
 90
        2
 40
-0.6
 41
30.0
 62
     5
 63
     7
 74
     1
 91
        4
 64
     7
 65
   257
 75
     1
175
     1
 42
1.0
 92
        0
 66
   257
 43
1.0
 76
     1
 77
     6
 78
     2
 67
     7
 79
     5
170
     0
171
     0
290
     0
174
     0
 93
       13
 44
0.0
173
     0
291
     1
 45
0.0
1001
ACAD
1000
AcDbSavedByObjectVersion
1070
     0
  0
VISUALSTYLE
  5
2D
102
{ACAD_REACTORS
330
2A
102
}
102
{ACAD_XDICTIONARY
360
28E
102
}
330
2A
100
AcDbVisualStyle
  2
Gouraud
 70
     2
 71
     2
 72
     2
 73
     1
 90
        2
 40
-0.6
 41
30.0
 62
     5
 63
     7
 74
     0
 91
        4
 64
     7
 65
   257
 75
     1
175
     1
 42
1.0
 92
        0
 66
     7
 43
1.0
 76
     1
 77
     6
 78
     2
 67
     7
 79
     5
170
     0
171
     0
290
     0
174
     0
 93
       13
 44
0.0
173
     0
291
     1
 45
0.0
1001
ACAD
1000
AcDbSavedByObjectVersion
1070
     0
  0
VISUALSTYLE
  5
2E
102
{ACAD_REACTORS
330
2A
102
}
102
{ACAD_XDICTIONARY
360
290
102
}
330
2A
100
AcDbVisualStyle
  2
GouraudWithEdges
 70
     3
 71
     2
 72
     2
 73
     1
 90
        2
 40
-0.6
 41
30.0
 62
     5
 63
     7
 74
     1
 91
        4
 64
     7
 65
   257
 75
     1
175
     1
 42
1.0
 92
        0
 66
   257
 43
1.0
 76
     1
 77
     6
 78
     2
 67
     7
 79
     5
170
     0
171
     0
290
     0
174
     0
 93
       13
 44
0.0
173
     0
291
     1
 45
0.0
1001
ACAD
1000
AcDbSavedByObjectVersion
1070
     0
  0
VISUALSTYLE
  5
38
102
{ACAD_REACTORS
330
2A
102
}
102
{ACAD_XDICTIONARY
360
2A4
102
}
330
2A
100
AcDbVisualStyle
  2
Linepattern
 70
    14
 71
     2
 72
     2
 73
     0
 90
        0
 40
-0.6
 41
-30.0
 62
     5
 63
     7
 74
     1
 91
        4
 64
     7
 65
   257
 75
     7
175
     7
 42
1.0
 92
        8
 66
     7
 43
1.0
 76
     1
 77
     6
 78
     2
 67
     7
 79
     5
170
     0
171
     0
290
     0
174
     0
 93
        1
 44
0.0
173
     0
291
     1
 45
0.0
1001
ACAD
1000
AcDbSavedByObjectVersion
1070
     0
  0
VISUALSTYLE
  5
33
102
{ACAD_REACTORS
330
2A
102
}
102
{ACAD_XDICTIONARY
360
29A
102
}
330
2A
100
AcDbVisualStyle
  2
Realistic
 70
     8
 71
     2
 72
     2
 73
     0
 90
        0
 40
-0.6
 41
-30.0
 62
     5
 63
     7
 74
     1
 91
        0
 64
     7
 65
   257
 75
     1
175
     1
 42
1.0
 92
        8
 66
     8
 43
1.0
 76
     1
 77
     6
 78
     2
 67
     7
 79
     5
170
     0
171
     0
290
     0
174
     0
 93
       13
 44
0.0
173
     0
291
     0
 45
0.0
1001
ACAD
1000
AcDbSavedByObjectVersion
1070
     0
  0
VISUALSTYLE
  5
37
102
{ACAD_REACTORS
330
2A
102
}
102
{ACAD_XDICTIONARY
360
2A2
102
}
330
2A
100
AcDbVisualStyle
  2
Thicken
 70
    13
 71
     2
 72
     2
 73
     0
 90
        0
 40
-0.6
 41
-30.0
 62
     5
 63
     7
 74
     1
 91
        4
 64
     7
 65
   257
 75
     1
175
     1
 42
1.0
 92
       12
 66
     7
 43
1.0
 76
     1
 77
     6
 78
     2
 67
     7
 79
     5
170
     0
171
     0
290
     0
174
     0
 93
        1
 44
0.0
173
     0
291
     1
 45
0.0
1001
ACAD
1000
AcDbSavedByObjectVersion
1070
     0
  0
DICTIONARYVAR
  5
288
102
{ACAD_REACTORS
330
285
102
}
330
285
100
DictionaryVariables
280
     0
  1
2
  0
DICTIONARYVAR
  5
289
102
{ACAD_REACTORS
330
285
102
}
330
285
100
DictionaryVariables
280
     0
  1
1
  0
DICTIONARY
  5
2AC
330
3D
100
AcDbDictionary
280
     1
281
     1
  3
ACAD_XREC_ROUNDTRIP
360
2AD
  0
DICTIONARY
  5
2AA
330
3C
100
AcDbDictionary
280
     1
281
     1
  3
ACAD_XREC_ROUNDTRIP
360
2AB
  0
DICTIONARY
  5
2AE
330
3E
100
AcDbDictionary
280
     1
281
     1
  3
ACAD_XREC_ROUNDTRIP
360
2AF
  0
DICTIONARY
  5
292
330
2F
100
AcDbDictionary
280
     1
281
     1
  3
ACAD_XREC_ROUNDTRIP
360
293
  0
DICTIONARY
  5
296
330
31
100
AcDbDictionary
280
     1
281
     1
  3
ACAD_XREC_ROUNDTRIP
360
297
  0
DICTIONARY
  5
294
330
30
100
AcDbDictionary
280
     1
281
     1
  3
ACAD_XREC_ROUNDTRIP
360
295
  0
DICTIONARY
  5
298
330
32
100
AcDbDictionary
280
     1
281
     1
  3
ACAD_XREC_ROUNDTRIP
360
299
  0
DICTIONARY
  5
2A0
330
36
100
AcDbDictionary
280
     1
281
     1
  3
ACAD_XREC_ROUNDTRIP
360
2A1
  0
DICTIONARY
  5
2A8
330
3A
100
AcDbDictionary
280
     1
281
     1
  3
ACAD_XREC_ROUNDTRIP
360
2A9
  0
DICTIONARY
  5
29C
330
34
100
AcDbDictionary
280
     1
281
     1
  3
ACAD_XREC_ROUNDTRIP
360
29D
  0
DICTIONARY
  5
29E
330
35
100
AcDbDictionary
280
     1
281
     1
  3
ACAD_XREC_ROUNDTRIP
360
29F
  0
DICTIONARY
  5
2A6
330
39
100
AcDbDictionary
280
     1
281
     1
  3
ACAD_XREC_ROUNDTRIP
360
2A7
  0
DICTIONARY
  5
28A
330
2B
100
AcDbDictionary
280
     1
281
     1
  3
ACAD_XREC_ROUNDTRIP
360
28B
  0
DICTIONARY
  5
28C
330
2C
100
AcDbDictionary
280
     1
281
     1
  3
ACAD_XREC_ROUNDTRIP
360
28D
  0
DICTIONARY
  5
28E
330
2D
100
AcDbDictionary
280
     1
281
     1
  3
ACAD_XREC_ROUNDTRIP
360
28F
  0
DICTIONARY
  5
290
330
2E
100
AcDbDictionary
280
     1
281
     1
  3
ACAD_XREC_ROUNDTRIP
360
291
  0
DICTIONARY
  5
2A4
330
38
100
AcDbDictionary
280
     1
281
     1
  3
ACAD_XREC_ROUNDTRIP
360
2A5
  0
DICTIONARY
  5
29A
330
33
100
AcDbDictionary
280
     1
281
     1
  3
ACAD_XREC_ROUNDTRIP
360
29B
  0
DICTIONARY
  5
2A2
330
37
100
AcDbDictionary
280
     1
281
     1
  3
ACAD_XREC_ROUNDTRIP
360
2A3
  0
XRECORD
  5
2AD
102
{ACAD_REACTORS
330
2AC
102
}
330
2AC
100
AcDbXrecord
280
     1
102
MATERIAL
148
0.0
149
0.0
149
0.0
 93
        0
 94
      127
282
     0
 72
     1
 77
     1
171
     1
175
     1
179
     1
273
     0
  0
XRECORD
  5
2AB
102
{ACAD_REACTORS
330
2AA
102
}
330
2AA
100
AcDbXrecord
280
     1
102
MATERIAL
148
0.0
149
0.0
149
0.0
 93
        0
 94
      127
282
     0
 72
     1
 77
     1
171
     1
175
     1
179
     1
273
     0
  0
XRECORD
  5
2AF
102
{ACAD_REACTORS
330
2AE
102
}
330
2AE
100
AcDbXrecord
280
     1
102
MATERIAL
148
0.0
149
0.0
149
0.0
 93
        0
 94
      127
282
     0
 72
     1
 77
     1
171
     1
175
     1
179
     1
273
     0
  0
XRECORD
  5
293
102
{ACAD_REACTORS
330
292
102
}
330
292
100
AcDbXrecord
280
     1
102
RTVSPropertyOp0
 70
     1
102
RTVSPropertyOp1
 70
     1
102
RTVSPropertyOp2
 70
     1
102
RTVSPropertyOp3
 70
     1
102
RTVSPropertyOp4
 70
     1
102
RTVSPropertyOp5
 70
     1
102
RTVSPropertyOp6
 70
     1
102
RTVSPropertyOp7
 70
     1
102
RTVSPropertyOp8
 70
     1
102
RTVSPropertyOp9
 70
     1
102
RTVSPropertyOp10
 70
     1
102
RTVSPropertyOp11
 70
     1
102
RTVSPropertyOp12
 70
     1
102
RTVSPropertyOp13
 70
     1
102
RTVSPropertyOp14
 70
     1
102
RTVSPropertyOp15
 70
     1
102
RTVSPropertyOp16
 70
     1
102
RTVSPropertyOp17
 70
     1
102
RTVSPropertyOp18
 70
     1
102
RTVSPropertyOp19
 70
     1
102
RTVSPropertyOp20
 70
     1
102
RTVSPropertyOp21
 70
     1
102
RTVSPropertyOp22
 70
     1
102
RTVSPropertyOp23
 70
     1
102
RTVSPropertyOp24
 70
     1
102
RTVSPropertyOp25
 70
     1
102
RTVSPropertyOp26
 70
     1
102
RTVSPropertyOp27
 70
     1
102
RTVSPropertyOp28
 70
     1
102
RTVSPropertyOp29
 70
     1
102
RTVSPropertyOp30
 70
     1
102
RTVSPropertyOp31
 70
     1
102
RTVSPropertyOp32
 70
     1
  0
XRECORD
  5
297
102
{ACAD_REACTORS
330
296
102
}
330
296
100
AcDbXrecord
280
     1
102
RTVSPropertyOp0
 70
     1
102
RTVSPropertyOp1
 70
     1
102
RTVSPropertyOp2
 70
     1
102
RTVSPropertyOp3
 70
     1
102
RTVSPropertyOp4
 70
     1
102
RTVSPropertyOp5
 70
     1
102
RTVSPropertyOp6
 70
     1
102
RTVSPropertyOp7
 70
     1
102
RTVSPropertyOp8
 70
     1
102
RTVSPropertyOp9
 70
     1
102
RTVSPropertyOp10
 70
     1
102
RTVSPropertyOp11
 70
     1
102
RTVSPropertyOp12
 70
     1
102
RTVSPropertyOp13
 70
     1
102
RTVSPropertyOp14
 70
     1
102
RTVSPropertyOp15
 70
     1
102
RTVSPropertyOp16
 70
     1
102
RTVSPropertyOp17
 70
     1
102
RTVSPropertyOp18
 70
     1
102
RTVSPropertyOp19
 70
     1
102
RTVSPropertyOp20
 70
     1
102
RTVSPropertyOp21
 70
     1
102
RTVSPropertyOp22
 70
     1
102
RTVSPropertyOp23
 70
     1
102
RTVSPropertyOp24
 70
     1
102
RTVSPropertyOp25
 70
     1
102
RTVSPropertyOp26
 70
     1
102
RTVSPropertyOp27
 70
     1
102
RTVSPropertyOp28
 70
     1
102
RTVSPropertyOp29
 70
     1
102
RTVSPropertyOp30
 70
     1
102
RTVSPropertyOp31
 70
     1
102
RTVSPropertyOp32
 70
     1
  0
XRECORD
  5
295
102
{ACAD_REACTORS
330
294
102
}
330
294
100
AcDbXrecord
280
     1
102
RTVSPropertyOp0
 70
     1
102
RTVSPropertyOp1
 70
     1
102
RTVSPropertyOp2
 70
     1
102
RTVSPropertyOp3
 70
     1
102
RTVSPropertyOp4
 70
     1
102
RTVSPropertyOp5
 70
     1
102
RTVSPropertyOp6
 70
     1
102
RTVSPropertyOp7
 70
     1
102
RTVSPropertyOp8
 70
     1
102
RTVSPropertyOp9
 70
     1
102
RTVSPropertyOp10
 70
     1
102
RTVSPropertyOp11
 70
     1
102
RTVSPropertyOp12
 70
     1
102
RTVSPropertyOp13
 70
     1
102
RTVSPropertyOp14
 70
     1
102
RTVSPropertyOp15
 70
     1
102
RTVSPropertyOp16
 70
     1
102
RTVSPropertyOp17
 70
     1
102
RTVSPropertyOp18
 70
     1
102
RTVSPropertyOp19
 70
     1
102
RTVSPropertyOp20
 70
     1
102
RTVSPropertyOp21
 70
     1
102
RTVSPropertyOp22
 70
     1
102
RTVSPropertyOp23
 70
     1
102
RTVSPropertyOp24
 70
     1
102
RTVSPropertyOp25
 70
     1
102
RTVSPropertyOp26
 70
     1
102
RTVSPropertyOp27
 70
     1
102
RTVSPropertyOp28
 70
     1
102
RTVSPropertyOp29
 70
     1
102
RTVSPropertyOp30
 70
     1
102
RTVSPropertyOp31
 70
     1
102
RTVSPropertyOp32
 70
     1
  0
XRECORD
  5
299
102
{ACAD_REACTORS
330
298
102
}
330
298
100
AcDbXrecord
280
     1
102
RTVSPropertyOp0
 70
     1
102
RTVSPropertyOp1
 70
     1
102
RTVSPropertyOp2
 70
     1
102
RTVSPropertyOp3
 70
     1
102
RTVSPropertyOp4
 70
     1
102
RTVSPropertyOp5
 70
     1
102
RTVSPropertyOp6
 70
     1
102
RTVSPropertyOp7
 70
     1
102
RTVSPropertyOp8
 70
     1
102
RTVSPropertyOp9
 70
     1
102
RTVSPropertyOp10
 70
     1
102
RTVSPropertyOp11
 70
     1
102
RTVSPropertyOp12
 70
     1
102
RTVSPropertyOp13
 70
     1
102
RTVSPropertyOp14
 70
     1
102
RTVSPropertyOp15
 70
     1
102
RTVSPropertyOp16
 70
     1
102
RTVSPropertyOp17
 70
     1
102
RTVSPropertyOp18
 70
     1
102
RTVSPropertyOp19
 70
     1
102
RTVSPropertyOp20
 70
     1
102
RTVSPropertyOp21
 70
     1
102
RTVSPropertyOp22
 70
     1
102
RTVSPropertyOp23
 70
     1
102
RTVSPropertyOp24
 70
     1
102
RTVSPropertyOp25
 70
     1
102
RTVSPropertyOp26
 70
     1
102
RTVSPropertyOp27
 70
     1
102
RTVSPropertyOp28
 70
     1
102
RTVSPropertyOp29
 70
     1
102
RTVSPropertyOp30
 70
     1
102
RTVSPropertyOp31
 70
     1
102
RTVSPropertyOp32
 70
     1
  0
XRECORD
  5
2A1
102
{ACAD_REACTORS
330
2A0
102
}
330
2A0
100
AcDbXrecord
280
     1
102
RTVSPropertyOp0
 70
     1
102
RTVSPropertyOp1
 70
     1
102
RTVSPropertyOp2
 70
     1
102
RTVSPropertyOp3
 70
     1
102
RTVSPropertyOp4
 70
     1
102
RTVSPropertyOp5
 70
     1
102
RTVSPropertyOp6
 70
     1
102
RTVSPropertyOp7
 70
     1
102
RTVSPropertyOp8
 70
     1
102
RTVSPropertyOp9
 70
     1
102
RTVSPropertyOp10
 70
     1
102
RTVSPropertyOp11
 70
     1
102
RTVSPropertyOp12
 70
     1
102
RTVSPropertyOp13
 70
     1
102
RTVSPropertyOp14
 70
     1
102
RTVSPropertyOp15
 70
     1
102
RTVSPropertyOp16
 70
     1
102
RTVSPropertyOp17
 70
     1
102
RTVSPropertyOp18
 70
     1
102
RTVSPropertyOp19
 70
     1
102
RTVSPropertyOp20
 70
     1
102
RTVSPropertyOp21
 70
     1
102
RTVSPropertyOp22
 70
     1
102
RTVSPropertyOp23
 70
     1
102
RTVSPropertyOp24
 70
     1
102
RTVSPropertyOp25
 70
     1
102
RTVSPropertyOp26
 70
     1
102
RTVSPropertyOp27
 70
     1
102
RTVSPropertyOp28
 70
     1
102
RTVSPropertyOp29
 70
     1
102
RTVSPropertyOp30
 70
     1
102
RTVSPropertyOp31
 70
     1
102
RTVSPropertyOp32
 70
     1
  0
XRECORD
  5
2A9
102
{ACAD_REACTORS
330
2A8
102
}
330
2A8
100
AcDbXrecord
280
     1
102
RTVSPropertyOp0
 70
     1
102
RTVSPropertyOp1
 70
     1
102
RTVSPropertyOp2
 70
     1
102
RTVSPropertyOp3
 70
     1
102
RTVSPropertyOp4
 70
     1
102
RTVSPropertyOp5
 70
     1
102
RTVSPropertyOp6
 70
     1
102
RTVSPropertyOp7
 70
     1
102
RTVSPropertyOp8
 70
     1
102
RTVSPropertyOp9
 70
     1
102
RTVSPropertyOp10
 70
     1
102
RTVSPropertyOp11
 70
     1
102
RTVSPropertyOp12
 70
     1
102
RTVSPropertyOp13
 70
     1
102
RTVSPropertyOp14
 70
     1
102
RTVSPropertyOp15
 70
     1
102
RTVSPropertyOp16
 70
     1
102
RTVSPropertyOp17
 70
     1
102
RTVSPropertyOp18
 70
     1
102
RTVSPropertyOp19
 70
     1
102
RTVSPropertyOp20
 70
     1
102
RTVSPropertyOp21
 70
     1
102
RTVSPropertyOp22
 70
     1
102
RTVSPropertyOp23
 70
     1
102
RTVSPropertyOp24
 70
     1
102
RTVSPropertyOp25
 70
     1
102
RTVSPropertyOp26
 70
     1
102
RTVSPropertyOp27
 70
     1
102
RTVSPropertyOp28
 70
     1
102
RTVSPropertyOp29
 70
     1
102
RTVSPropertyOp30
 70
     1
102
RTVSPropertyOp31
 70
     1
102
RTVSPropertyOp32
 70
     1
  0
XRECORD
  5
29D
102
{ACAD_REACTORS
330
29C
102
}
330
29C
100
AcDbXrecord
280
     1
102
RTVSPropertyOp0
 70
     1
102
RTVSPropertyOp1
 70
     1
102
RTVSPropertyOp2
 70
     1
102
RTVSPropertyOp3
 70
     1
102
RTVSPropertyOp4
 70
     1
102
RTVSPropertyOp5
 70
     1
102
RTVSPropertyOp6
 70
     1
102
RTVSPropertyOp7
 70
     1
102
RTVSPropertyOp8
 70
     1
102
RTVSPropertyOp9
 70
     1
102
RTVSPropertyOp10
 70
     1
102
RTVSPropertyOp11
 70
     1
102
RTVSPropertyOp12
 70
     1
102
RTVSPropertyOp13
 70
     1
102
RTVSPropertyOp14
 70
     1
102
RTVSPropertyOp15
 70
     1
102
RTVSPropertyOp16
 70
     1
102
RTVSPropertyOp17
 70
     1
102
RTVSPropertyOp18
 70
     1
102
RTVSPropertyOp19
 70
     1
102
RTVSPropertyOp20
 70
     1
102
RTVSPropertyOp21
 70
     1
102
RTVSPropertyOp22
 70
     1
102
RTVSPropertyOp23
 70
     1
102
RTVSPropertyOp24
 70
     1
102
RTVSPropertyOp25
 70
     1
102
RTVSPropertyOp26
 70
     1
102
RTVSPropertyOp27
 70
     1
102
RTVSPropertyOp28
 70
     1
102
RTVSPropertyOp29
 70
     1
102
RTVSPropertyOp30
 70
     1
102
RTVSPropertyOp31
 70
     1
102
RTVSPropertyOp32
 70
     1
  0
XRECORD
  5
29F
102
{ACAD_REACTORS
330
29E
102
}
330
29E
100
AcDbXrecord
280
     1
102
RTVSPropertyOp0
 70
     1
102
RTVSPropertyOp1
 70
     1
102
RTVSPropertyOp2
 70
     1
102
RTVSPropertyOp3
 70
     1
102
RTVSPropertyOp4
 70
     1
102
RTVSPropertyOp5
 70
     1
102
RTVSPropertyOp6
 70
     1
102
RTVSPropertyOp7
 70
     1
102
RTVSPropertyOp8
 70
     1
102
RTVSPropertyOp9
 70
     1
102
RTVSPropertyOp10
 70
     1
102
RTVSPropertyOp11
 70
     1
102
RTVSPropertyOp12
 70
     1
102
RTVSPropertyOp13
 70
     1
102
RTVSPropertyOp14
 70
     1
102
RTVSPropertyOp15
 70
     1
102
RTVSPropertyOp16
 70
     1
102
RTVSPropertyOp17
 70
     1
102
RTVSPropertyOp18
 70
     1
102
RTVSPropertyOp19
 70
     1
102
RTVSPropertyOp20
 70
     1
102
RTVSPropertyOp21
 70
     1
102
RTVSPropertyOp22
 70
     1
102
RTVSPropertyOp23
 70
     1
102
RTVSPropertyOp24
 70
     1
102
RTVSPropertyOp25
 70
     1
102
RTVSPropertyOp26
 70
     1
102
RTVSPropertyOp27
 70
     1
102
RTVSPropertyOp28
 70
     1
102
RTVSPropertyOp29
 70
     1
102
RTVSPropertyOp30
 70
     1
102
RTVSPropertyOp31
 70
     1
102
RTVSPropertyOp32
 70
     1
  0
XRECORD
  5
2A7
102
{ACAD_REACTORS
330
2A6
102
}
330
2A6
100
AcDbXrecord
280
     1
102
RTVSPropertyOp0
 70
     1
102
RTVSPropertyOp1
 70
     1
102
RTVSPropertyOp2
 70
     1
102
RTVSPropertyOp3
 70
     1
102
RTVSPropertyOp4
 70
     1
102
RTVSPropertyOp5
 70
     1
102
RTVSPropertyOp6
 70
     1
102
RTVSPropertyOp7
 70
     1
102
RTVSPropertyOp8
 70
     1
102
RTVSPropertyOp9
 70
     1
102
RTVSPropertyOp10
 70
     1
102
RTVSPropertyOp11
 70
     1
102
RTVSPropertyOp12
 70
     1
102
RTVSPropertyOp13
 70
     1
102
RTVSPropertyOp14
 70
     1
102
RTVSPropertyOp15
 70
     1
102
RTVSPropertyOp16
 70
     1
102
RTVSPropertyOp17
 70
     1
102
RTVSPropertyOp18
 70
     1
102
RTVSPropertyOp19
 70
     1
102
RTVSPropertyOp20
 70
     1
102
RTVSPropertyOp21
 70
     1
102
RTVSPropertyOp22
 70
     1
102
RTVSPropertyOp23
 70
     1
102
RTVSPropertyOp24
 70
     1
102
RTVSPropertyOp25
 70
     1
102
RTVSPropertyOp26
 70
     1
102
RTVSPropertyOp27
 70
     1
102
RTVSPropertyOp28
 70
     1
102
RTVSPropertyOp29
 70
     1
102
RTVSPropertyOp30
 70
     1
102
RTVSPropertyOp31
 70
     1
102
RTVSPropertyOp32
 70
     1
  0
XRECORD
  5
28B
102
{ACAD_REACTORS
330
28A
102
}
330
28A
100
AcDbXrecord
280
     1
102
RTVSPropertyOp0
 70
     1
102
RTVSPropertyOp1
 70
     1
102
RTVSPropertyOp2
 70
     1
102
RTVSPropertyOp3
 70
     1
102
RTVSPropertyOp4
 70
     1
102
RTVSPropertyOp5
 70
     1
102
RTVSPropertyOp6
 70
     1
102
RTVSPropertyOp7
 70
     1
102
RTVSPropertyOp8
 70
     1
102
RTVSPropertyOp9
 70
     1
102
RTVSPropertyOp10
 70
     1
102
RTVSPropertyOp11
 70
     1
102
RTVSPropertyOp12
 70
     1
102
RTVSPropertyOp13
 70
     1
102
RTVSPropertyOp14
 70
     1
102
RTVSPropertyOp15
 70
     1
102
RTVSPropertyOp16
 70
     1
102
RTVSPropertyOp17
 70
     1
102
RTVSPropertyOp18
 70
     1
102
RTVSPropertyOp19
 70
     1
102
RTVSPropertyOp20
 70
     1
102
RTVSPropertyOp21
 70
     1
102
RTVSPropertyOp22
 70
     1
102
RTVSPropertyOp23
 70
     1
102
RTVSPropertyOp24
 70
     1
102
RTVSPropertyOp25
 70
     1
102
RTVSPropertyOp26
 70
     1
102
RTVSPropertyOp27
 70
     1
102
RTVSPropertyOp28
 70
     1
102
RTVSPropertyOp29
 70
     1
102
RTVSPropertyOp30
 70
     1
102
RTVSPropertyOp31
 70
     1
102
RTVSPropertyOp32
 70
     1
  0
XRECORD
  5
28D
102
{ACAD_REACTORS
330
28C
102
}
330
28C
100
AcDbXrecord
280
     1
102
RTVSPropertyOp0
 70
     1
102
RTVSPropertyOp1
 70
     1
102
RTVSPropertyOp2
 70
     1
102
RTVSPropertyOp3
 70
     1
102
RTVSPropertyOp4
 70
     1
102
RTVSPropertyOp5
 70
     1
102
RTVSPropertyOp6
 70
     1
102
RTVSPropertyOp7
 70
     1
102
RTVSPropertyOp8
 70
     1
102
RTVSPropertyOp9
 70
     1
102
RTVSPropertyOp10
 70
     1
102
RTVSPropertyOp11
 70
     1
102
RTVSPropertyOp12
 70
     1
102
RTVSPropertyOp13
 70
     1
102
RTVSPropertyOp14
 70
     1
102
RTVSPropertyOp15
 70
     1
102
RTVSPropertyOp16
 70
     1
102
RTVSPropertyOp17
 70
     1
102
RTVSPropertyOp18
 70
     1
102
RTVSPropertyOp19
 70
     1
102
RTVSPropertyOp20
 70
     1
102
RTVSPropertyOp21
 70
     1
102
RTVSPropertyOp22
 70
     1
102
RTVSPropertyOp23
 70
     1
102
RTVSPropertyOp24
 70
     1
102
RTVSPropertyOp25
 70
     1
102
RTVSPropertyOp26
 70
     1
102
RTVSPropertyOp27
 70
     1
102
RTVSPropertyOp28
 70
     1
102
RTVSPropertyOp29
 70
     1
102
RTVSPropertyOp30
 70
     1
102
RTVSPropertyOp31
 70
     1
102
RTVSPropertyOp32
 70
     1
  0
XRECORD
  5
28F
102
{ACAD_REACTORS
330
28E
102
}
330
28E
100
AcDbXrecord
280
     1
102
RTVSPropertyOp0
 70
     1
102
RTVSPropertyOp1
 70
     1
102
RTVSPropertyOp2
 70
     1
102
RTVSPropertyOp3
 70
     1
102
RTVSPropertyOp4
 70
     1
102
RTVSPropertyOp5
 70
     1
102
RTVSPropertyOp6
 70
     1
102
RTVSPropertyOp7
 70
     1
102
RTVSPropertyOp8
 70
     1
102
RTVSPropertyOp9
 70
     1
102
RTVSPropertyOp10
 70
     1
102
RTVSPropertyOp11
 70
     1
102
RTVSPropertyOp12
 70
     1
102
RTVSPropertyOp13
 70
     1
102
RTVSPropertyOp14
 70
     1
102
RTVSPropertyOp15
 70
     1
102
RTVSPropertyOp16
 70
     1
102
RTVSPropertyOp17
 70
     1
102
RTVSPropertyOp18
 70
     1
102
RTVSPropertyOp19
 70
     1
102
RTVSPropertyOp20
 70
     1
102
RTVSPropertyOp21
 70
     1
102
RTVSPropertyOp22
 70
     1
102
RTVSPropertyOp23
 70
     1
102
RTVSPropertyOp24
 70
     1
102
RTVSPropertyOp25
 70
     1
102
RTVSPropertyOp26
 70
     1
102
RTVSPropertyOp27
 70
     1
102
RTVSPropertyOp28
 70
     1
102
RTVSPropertyOp29
 70
     1
102
RTVSPropertyOp30
 70
     1
102
RTVSPropertyOp31
 70
     1
102
RTVSPropertyOp32
 70
     1
  0
XRECORD
  5
291
102
{ACAD_REACTORS
330
290
102
}
330
290
100
AcDbXrecord
280
     1
102
RTVSPropertyOp0
 70
     1
102
RTVSPropertyOp1
 70
     1
102
RTVSPropertyOp2
 70
     1
102
RTVSPropertyOp3
 70
     1
102
RTVSPropertyOp4
 70
     1
102
RTVSPropertyOp5
 70
     1
102
RTVSPropertyOp6
 70
     1
102
RTVSPropertyOp7
 70
     1
102
RTVSPropertyOp8
 70
     1
102
RTVSPropertyOp9
 70
     1
102
RTVSPropertyOp10
 70
     1
102
RTVSPropertyOp11
 70
     1
102
RTVSPropertyOp12
 70
     1
102
RTVSPropertyOp13
 70
     1
102
RTVSPropertyOp14
 70
     1
102
RTVSPropertyOp15
 70
     1
102
RTVSPropertyOp16
 70
     1
102
RTVSPropertyOp17
 70
     1
102
RTVSPropertyOp18
 70
     1
102
RTVSPropertyOp19
 70
     1
102
RTVSPropertyOp20
 70
     1
102
RTVSPropertyOp21
 70
     1
102
RTVSPropertyOp22
 70
     1
102
RTVSPropertyOp23
 70
     1
102
RTVSPropertyOp24
 70
     1
102
RTVSPropertyOp25
 70
     1
102
RTVSPropertyOp26
 70
     1
102
RTVSPropertyOp27
 70
     1
102
RTVSPropertyOp28
 70
     1
102
RTVSPropertyOp29
 70
     1
102
RTVSPropertyOp30
 70
     1
102
RTVSPropertyOp31
 70
     1
102
RTVSPropertyOp32
 70
     1
  0
XRECORD
  5
2A5
102
{ACAD_REACTORS
330
2A4
102
}
330
2A4
100
AcDbXrecord
280
     1
102
RTVSPropertyOp0
 70
     1
102
RTVSPropertyOp1
 70
     1
102
RTVSPropertyOp2
 70
     1
102
RTVSPropertyOp3
 70
     1
102
RTVSPropertyOp4
 70
     1
102
RTVSPropertyOp5
 70
     1
102
RTVSPropertyOp6
 70
     1
102
RTVSPropertyOp7
 70
     1
102
RTVSPropertyOp8
 70
     1
102
RTVSPropertyOp9
 70
     1
102
RTVSPropertyOp10
 70
     1
102
RTVSPropertyOp11
 70
     1
102
RTVSPropertyOp12
 70
     1
102
RTVSPropertyOp13
 70
     1
102
RTVSPropertyOp14
 70
     1
102
RTVSPropertyOp15
 70
     1
102
RTVSPropertyOp16
 70
     1
102
RTVSPropertyOp17
 70
     1
102
RTVSPropertyOp18
 70
     1
102
RTVSPropertyOp19
 70
     1
102
RTVSPropertyOp20
 70
     1
102
RTVSPropertyOp21
 70
     1
102
RTVSPropertyOp22
 70
     1
102
RTVSPropertyOp23
 70
     1
102
RTVSPropertyOp24
 70
     1
102
RTVSPropertyOp25
 70
     1
102
RTVSPropertyOp26
 70
     1
102
RTVSPropertyOp27
 70
     1
102
RTVSPropertyOp28
 70
     1
102
RTVSPropertyOp29
 70
     1
102
RTVSPropertyOp30
 70
     1
102
RTVSPropertyOp31
 70
     1
102
RTVSPropertyOp32
 70
     1
  0
XRECORD
  5
29B
102
{ACAD_REACTORS
330
29A
102
}
330
29A
100
AcDbXrecord
280
     1
102
RTVSPropertyOp0
 70
     1
102
RTVSPropertyOp1
 70
     1
102
RTVSPropertyOp2
 70
     1
102
RTVSPropertyOp3
 70
     1
102
RTVSPropertyOp4
 70
     1
102
RTVSPropertyOp5
 70
     1
102
RTVSPropertyOp6
 70
     1
102
RTVSPropertyOp7
 70
     1
102
RTVSPropertyOp8
 70
     1
102
RTVSPropertyOp9
 70
     1
102
RTVSPropertyOp10
 70
     1
102
RTVSPropertyOp11
 70
     1
102
RTVSPropertyOp12
 70
     1
102
RTVSPropertyOp13
 70
     1
102
RTVSPropertyOp14
 70
     1
102
RTVSPropertyOp15
 70
     1
102
RTVSPropertyOp16
 70
     1
102
RTVSPropertyOp17
 70
     1
102
RTVSPropertyOp18
 70
     1
102
RTVSPropertyOp19
 70
     1
102
RTVSPropertyOp20
 70
     1
102
RTVSPropertyOp21
 70
     1
102
RTVSPropertyOp22
 70
     1
102
RTVSPropertyOp23
 70
     1
102
RTVSPropertyOp24
 70
     1
102
RTVSPropertyOp25
 70
     1
102
RTVSPropertyOp26
 70
     1
102
RTVSPropertyOp27
 70
     1
102
RTVSPropertyOp28
 70
     1
102
RTVSPropertyOp29
 70
     1
102
RTVSPropertyOp30
 70
     1
102
RTVSPropertyOp31
 70
     1
102
RTVSPropertyOp32
 70
     1
  0
XRECORD
  5
2A3
102
{ACAD_REACTORS
330
2A2
102
}
330
2A2
100
AcDbXrecord
280
     1
102
RTVSPropertyOp0
 70
     1
102
RTVSPropertyOp1
 70
     1
102
RTVSPropertyOp2
 70
     1
102
RTVSPropertyOp3
 70
     1
102
RTVSPropertyOp4
 70
     1
102
RTVSPropertyOp5
 70
     1
102
RTVSPropertyOp6
 70
     1
102
RTVSPropertyOp7
 70
     1
102
RTVSPropertyOp8
 70
     1
102
RTVSPropertyOp9
 70
     1
102
RTVSPropertyOp10
 70
     1
102
RTVSPropertyOp11
 70
     1
102
RTVSPropertyOp12
 70
     1
102
RTVSPropertyOp13
 70
     1
102
RTVSPropertyOp14
 70
     1
102
RTVSPropertyOp15
 70
     1
102
RTVSPropertyOp16
 70
     1
102
RTVSPropertyOp17
 70
     1
102
RTVSPropertyOp18
 70
     1
102
RTVSPropertyOp19
 70
     1
102
RTVSPropertyOp20
 70
     1
102
RTVSPropertyOp21
 70
     1
102
RTVSPropertyOp22
 70
     1
102
RTVSPropertyOp23
 70
     1
102
RTVSPropertyOp24
 70
     1
102
RTVSPropertyOp25
 70
     1
102
RTVSPropertyOp26
 70
     1
102
RTVSPropertyOp27
 70
     1
102
RTVSPropertyOp28
 70
     1
102
RTVSPropertyOp29
 70
     1
102
RTVSPropertyOp30
 70
     1
102
RTVSPropertyOp31
 70
     1
102
RTVSPropertyOp32
 70
     1
  0
ENDSEC
  0
EOF
